<?xml version="1.0" standalone="no"?>
<!DOCTYPE svg PUBLIC "-//W3C//DTD SVG 1.1//EN" "http://www.w3.org/Graphics/SVG/1.1/DTD/svg11.dtd" >
<svg xmlns="http://www.w3.org/2000/svg">
<metadata></metadata>
<defs>
<font id="bodonixtregular" horiz-adv-x="1024" >
<font-face units-per-em="2048" ascent="1638" descent="-410" />
<missing-glyph horiz-adv-x="512" />
<glyph horiz-adv-x="2048" />
<glyph horiz-adv-x="2048" />
<glyph horiz-adv-x="682" />
<glyph horiz-adv-x="681" d="M41 1327q8 -174 94 -247.5t207 -73.5t207 73.5t94 247.5h-74q-29 -111 -84 -149q-57 -39 -143 -39t-143 39q-55 39 -84 149h-74z" />
<glyph horiz-adv-x="681" d="M231 1096q0 -43 33 -76q31 -31 76 -31t78 33q31 31 31 74t-33 75q-31 31 -76 31t-78 -33q-31 -31 -31 -73z" />
<glyph horiz-adv-x="681" d="M133 1120q0 -86 61.5 -147.5t147.5 -61.5t147.5 61.5t61.5 147.5t-61.5 147.5t-147.5 61.5t-147.5 -61.5t-61.5 -147.5zM217 1120q0 51 37 88t88 37q53 0 90 -37q35 -39 35 -88q0 -53 -37 -90q-35 -35 -88 -35q-51 0 -88 37q-37 33 -37 88z" />
<glyph unicode="&#xa;" horiz-adv-x="681" d="M-47 1010h106l332 229q29 28 29 53q0 23 -23 49q-25 27 -53 27q-29 0 -57 -20q-20 -14 -52 -46t-79 -81q-47 -47 -97.5 -100.5t-105.5 -110.5zM266 1010h107l334 229q28 28 28 53t-24 49q-25 27 -54 27t-55 -20q-41 -29 -133 -127q-47 -47 -97 -100.5t-106 -110.5z" />
<glyph horiz-adv-x="681" d="M166 -160q0 -55 53 -86q51 -31 129 -30q43 0 96 18q51 15 76 33l-26 65q-33 -18 -60 -26q-23 -6 -49 -7q-41 0 -70 21q-31 18 -30 59q0 33 20 66q23 35 57 55h-51q-59 -25 -102 -67.5t-43 -100.5z" />
<glyph horiz-adv-x="681" d="M16 1327l256 -346h140l254 346h-88l-236 -213l-238 213h-88z" />
<glyph unicode="&#xd;" horiz-adv-x="569" d="M20 0h525v51h-150v1032l-368 -10v-51h147v-971h-154v-51z" />
<glyph horiz-adv-x="342" d="M-344 0h106l920 1321h-107z" />
<glyph horiz-adv-x="1138" d="M35 0h483v51h-119v971h191h41h106v-971h-119v-51h484v51h-144v1032l-368 -10h-191v45q0 27 -2 50.5t-1 45t7.5 41t22.5 36t27.5 29.5t22.5 21.5t23.5 12.5t32.5 4q12 0 42 -1t63 -3t60.5 -6.5t35.5 -8.5q31 -16 31 -32q-2 -16 -25 -45q-23 -27 -22 -64q2 -94 108 -94 q104 0 109 102q2 76 -74 137q-18 14 -57 24.5t-85 18t-90 10.5t-71 3q-199 0 -330 -150q-25 -27 -34 -46t-11 -37.5t-1 -40t-1 -52.5h-145v-51h143v-68v-903h-143v-51z" />
<glyph horiz-adv-x="1138" d="M33 0h491v51h-125v971h336v-971h-114v-51h485v51h-150v1348q-72 -29 -110 -37q-16 -4 -58 -8q-16 12 -44.5 20t-61.5 13.5t-67.5 8.5t-61.5 3q-94 0 -162.5 -34t-140.5 -116q-23 -25 -34 -42t-17 -34.5t-9.5 -40t-7.5 -59.5h-149v-51h145v-47v-924h-145v-51zM399 1073v45 v92t31 78t53.5 52.5t67.5 17.5q12 0 31.5 -1t40 -3t39 -5t24.5 -8q27 -14 27 -49q0 -27 -25 -53q-23 -27 -22 -61q0 -59 69 -74v-31h-336z" />
<glyph horiz-adv-x="1251" d="M35 1317h215v-651l-201 -166v-103l201 166v-512h-203v-51h1135l22 461h-63q-6 -195 -94 -301q-86 -109 -273 -109h-264v727l281 234v102l-281 -233v436h213v51h-688v-51z" />
<glyph horiz-adv-x="569" d="M23 0h524v51h-150v719l152 121v84l-152 -121v545q-59 -10 -105 -16.5t-79 -10.5q-33 -2 -79 -3t-105 -1v-51h147v-639l-153 -123v-84l153 123v-543h-153v-51z" />
<glyph horiz-adv-x="1251" d="M80 0h1075l16 440h-55q-59 -281 -160 -336q-102 -53 -247 -53h-332l790 1258v59h-987l-33 -369h64q47 213 149 267q100 51 248 51h269l-797 -1262v-55zM299 1884l256 -346h139l254 346h-88l-235 -213l-238 213h-88z" />
<glyph horiz-adv-x="909" d="M61 0h736v348h-58q-12 -158 -63 -227.5t-189 -69.5h-168l480 961v61h-209l186 254h-88l-235 -213l-238 213h-88l188 -254h-206v-317h53q20 135 82 202q37 43 112 60l27 -37h139l6 8l-467 -932v-57z" />
<glyph unicode=" "  horiz-adv-x="512" />
<glyph unicode="&#x09;" horiz-adv-x="512" />
<glyph unicode="&#xa0;" horiz-adv-x="512" />
<glyph unicode="!" horiz-adv-x="681" d="M205 1270q0 -37 51 -279q51 -238 57 -553h54q4 156 17 294t40 261q51 238 51 277q0 61 -41 96q-39 33 -94 33q-57 0 -96 -33t-39 -96zM211 100q0 -53 39 -92q37 -37 90 -37t92 39q37 37 37 90t-39 93q-37 37 -90 36q-53 0 -92 -39q-37 -37 -37 -90z" />
<glyph unicode="&#x22;" horiz-adv-x="696" d="M127 1323l4 -154l29 -368q4 -47 43 -47t43 47l28 366l5 156q0 31 -23 53.5t-53 22.5q-31 0 -53.5 -22.5t-22.5 -53.5zM418 1323l4 -154l29 -368q4 -47 43 -47t43 47l28 366l4 156q0 31 -22.5 53.5t-52.5 22.5q-31 0 -53.5 -22.5t-22.5 -53.5z" />
<glyph unicode="#" d="M10 442h219l-67 -442h119l67 442h279l-68 -442h119l67 442h218v113h-199l41 274h213v113h-195l58 379h-119l-57 -379h-279l57 379h-118l-58 -379h-241v-113h223l-41 -274h-238v-113zM367 555l41 274h278l-41 -274h-278z" />
<glyph unicode="$" d="M86 270q0 -109 113 -188q74 -51 178 -72v-205h49v199q10 -2 25 -2h30q51 0 86 6v-203h49v211q117 31 187 93q123 106 123 284q0 168 -97 254q-33 29 -85 57.5t-128 57.5v489q63 -12 99 -30q74 -39 73 -82q0 -31 -43 -49.5t-43 -73.5q0 -92 91 -92h8q98 0 98 112 q0 109 -100 183q-57 43 -183 65v166h-49v-160q-10 2 -28 2h-39q-47 0 -74 -6v164h-49v-174q-86 -29 -141 -80q-104 -96 -105 -248q0 -152 84 -237q51 -53 162 -101v-561q-76 16 -109 37q-70 45 -69 78q0 25 51 49q49 25 49 98q0 88 -88 88h-18q-106 -8 -107 -129zM209 1024 q0 96 88 166q31 27 80 45v-397q-33 10 -66 24q-102 43 -102 162zM426 43v549q23 -10 63 -19q25 -6 44.5 -11t33.5 -9v-506q-35 -6 -82 -6h-34t-25 2zM426 819v432q31 8 82 9h35q14 0 24 -3v-479q-20 8 -53 17q-23 6 -44 11t-44 13zM616 57v480q41 -14 73 -28.5t59 -31.5 q98 -59 98 -178q0 -111 -105 -184q-25 -18 -56.5 -32.5t-68.5 -25.5z" />
<glyph unicode="%" horiz-adv-x="1933" d="M137 780q0 -106 66 -178q63 -70 166 -70q180 0 315 160q133 162 133 377q0 14 -1 25.5t-3 21.5q23 -8 72 -18q57 -10 106 -11q139 0 266 70l-790 -1218h104l924 1419h-92q-76 -104 -166 -159.5t-197 -55.5h-26q-172 0 -238 57q-16 20 -31 37q-70 70 -165 70 q-143 0 -293 -174.5t-150 -352.5zM311 707q0 166 115 342q115 174 190 176q45 -45 136 -88q14 -32 14 -93q0 -158 -115 -307q-115 -147 -229 -147q-51 0 -82 31q-29 33 -29 86zM1118 231q0 -106 66 -178q63 -70 166 -69q180 0 315 159q133 162 133 379q0 96 -72 168 q-70 70 -165 70q-143 0 -293 -174t-150 -355zM1292 158q0 166 117 344q115 176 195 176q70 0 106.5 -47t36.5 -133q0 -162 -115 -312q-115 -145 -229 -145q-55 0 -82 31q-29 33 -29 86z" />
<glyph unicode="&#x26;" horiz-adv-x="1705" d="M127 324q0 -150 115 -258q117 -106 338 -107q150 0 294 70q82 39 148 92l84 -121h475v51h-205q-43 66 -86 129.5t-88 126.5q33 41 59.5 82t49.5 86q66 131 78 320h192v51h-457v-51h203q-8 -160 -65 -283q-35 -78 -93 -158q-16 25 -34.5 49.5t-34.5 49.5 q-66 98 -133.5 192t-135.5 191q102 39 187 92q145 90 145 221q0 113 -104 178q-104 61 -244 62q-156 0 -262 -84q-104 -84 -104 -222q0 -78 40 -165q18 -41 38 -75t38 -63q-207 -74 -317 -172q-121 -109 -121 -284zM365 477q0 102 55 162q53 53 172 102l397 -571l-80 -55 q-109 -68 -204 -68q-143 0 -242 164q-98 162 -98 266zM633 1190q0 74 51 113q47 39 117 38q88 0 131 -49q43 -46 43 -159q0 -143 -74 -199q-16 -12 -41.5 -26.5t-60.5 -30.5q-20 27 -45 59.5t-54 73.5q-68 98 -67 180z" />
<glyph unicode="'" horiz-adv-x="409" d="M127 1323l4 -154l29 -368q4 -47 43 -47t43 47l28 366l5 156q0 31 -23 53.5t-53 22.5q-31 0 -53.5 -22.5t-22.5 -53.5z" />
<glyph unicode="(" horiz-adv-x="681" d="M100 459q0 -319 156 -580q158 -262 330 -358v57q-188 131 -246 344q-55 211 -55 537q0 332 57 540q55 209 244 342v58q-172 -96 -330 -361q-156 -260 -156 -579z" />
<glyph unicode=")" horiz-adv-x="681" d="M100 -422v-57q172 96 330 360q156 261 156 578q0 322 -156 581q-158 262 -330 359v-58q186 -133 246 -344q55 -213 55 -538q0 -330 -57 -539q-55 -209 -244 -342z" />
<glyph unicode="*" d="M139 729q0 -18 13 -39q20 -37 59 -37q25 0 51 15q16 10 36.5 31.5t47.5 50.5q47 55 152 118q-2 -59 -8.5 -108t-20.5 -84q-27 -76 -27 -111q0 -84 74 -84t74 84q0 37 -29 111q-23 68 -26 192q100 -59 153 -120q51 -59 82 -80q27 -14 51 -15q35 0 58 37q12 21 12 41 q0 37 -47 68q-35 18 -111 30q-74 12 -178 72q106 59 180 72q76 12 109 31q47 31 47 67q0 16 -12 39q-20 39 -58 39q-25 0 -51 -14q-16 -10 -36.5 -32t-47.5 -50q-47 -55 -151 -119q2 59 8 108.5t20 83.5q27 76 27 111q0 84 -74 84t-74 -84q0 -37 29 -111q23 -68 27 -192 q-100 59 -154 121q-51 59 -82 80q-27 14 -51 14q-39 0 -59 -39q-12 -23 -13 -39q0 -37 49 -67q33 -18 111 -31q74 -12 178 -72q-106 -59 -180 -72q-76 -12 -109 -30q-49 -31 -49 -70z" />
<glyph unicode="+" d="M59 403h400v-395h110v395h398v111h-398v389h-110v-389h-400v-111z" />
<glyph unicode="," horiz-adv-x="681" d="M207 94q0 -55 33 -90q35 -35 77 -35q78 0 101 56q23 53 41 53q35 0 35 -64q0 -27 -7 -59q-18 -127 -172 -244q-14 -12 -14 -22q0 -8 10 -15q8 -6 21 -6q4 0 20 8q43 31 80 69t66 85q57 94 57 178q0 113 -57.5 170.5t-141.5 57.5q-70 0 -110 -41q-39 -39 -39 -101z" />
<glyph unicode="-" horiz-adv-x="681" d="M66 590h555v108h-555v-108z" />
<glyph unicode="." horiz-adv-x="399" d="M63 100q0 -53 39 -92q37 -37 91 -37q53 0 92 39q37 37 37 90t-39 93q-37 37 -90 36q-53 0 -93 -39q-37 -37 -37 -90z" />
<glyph unicode="/" horiz-adv-x="569" d="M4 -31h119l442 1430h-119z" />
<glyph unicode="0" d="M61 643q0 -268 134 -473q131 -203 309 -203q176 0 311 203q133 205 133 473q0 272 -135 475q-133 203 -307 203q-176 0 -311 -203q-133 -205 -134 -475zM311 393v502q0 172 47 276q47 102 146 103q98 0 147 -103q47 -104 47 -276v-502q0 -176 -49 -276 q-47 -102 -143 -103q-100 0 -148 103q-47 104 -47 276z" />
<glyph unicode="1" d="M170 1247h176q51 0 66 -16q14 -18 14 -74v-1106h-244v-51h703v51h-238v1270l-203 -16q-92 -6 -274 -7v-51z" />
<glyph unicode="2" d="M59 0h809l13 379h-47q0 -113 -23 -154q-20 -39 -80 -39h-532l456 404q76 68 156 160q76 88 76 235q0 143 -111 242q-113 94 -280 94q-166 0 -281 -96q-113 -94 -113 -236q0 -63 33 -117q35 -55 109 -57q117 -4 127 105v16q0 92 -107 100q-16 0 -57 -10l-12 -2 q-27 0 -29 31q0 78 74 137q74 57 168 57q98 0 170 -86q68 -84 67 -215q0 -174 -67 -280q-35 -53 -77 -106.5t-95 -104.5l-347 -324v-133z" />
<glyph unicode="3" d="M78 203q-2 -96 100 -168q98 -68 240 -68q203 0 348 109q141 104 141 262q0 150 -104 242q-102 94 -332 114q205 51 291 135q84 84 84 199q0 125 -111 209q-113 84 -278 84q-127 0 -221 -66q-94 -68 -93 -155q4 -121 107 -121h8q92 0 102 92q0 53 -43 88q-43 31 -43 47 t50 45q45 25 102 25q98 0 145 -62q45 -57 45 -174q0 -143 -65 -233q-61 -82 -174 -86l-111 -4q-35 0 -43 -27q-2 -4 -2 -8q0 -14 10.5 -17t32.5 -3h64q174 0 256 -82q80 -80 80 -254q0 -143 -70 -226q-68 -84 -188 -84q-76 0 -132 25q-55 20 -55 57q0 12 47 47q45 31 49 91 q-6 106 -104 106h-12q-115 0 -121 -139z" />
<glyph unicode="4" d="M18 348h523v-297h-154v-51h528v51h-153v297h147v-153h54v362h-54v-151h-147v915h-148l-596 -915v-58zM90 406l451 692v-692h-451z" />
<glyph unicode="5" d="M100 211q-4 -59 20.5 -103.5t69.5 -76.5q88 -63 240 -64q225 0 358 111q132 110 132 309q0 180 -125 287q-125 109 -320 108q-33 0 -63.5 -2t-59.5 -6q-61 -6 -112 -24l16 378h274q158 0 230 50q70 49 69 200h-45q0 -29 -18 -43q-23 -14 -51 -14h-508l-29 -631 q0 -18 8 -18q12 0 35 6q41 25 82 35q23 4 46.5 7t49.5 3q141 0 211 -88q72 -90 72 -252q0 -182 -66 -279q-63 -94 -206 -94q-70 0 -125 23q-53 18 -54 55q0 18 48 47q51 27 51 78q-2 125 -105 125h-8q-111 0 -117 -127z" />
<glyph unicode="6" d="M76 532q0 -264 135 -413q133 -152 309 -152q178 0 311 127q132 123 132 299t-111 303q-106 125 -268 125q-90 0 -168 -41q-45 -25 -84 -59q39 211 119 323q133 184 426 242v45q-309 -12 -558 -244q-244 -227 -243 -555zM319 520q0 39 1.5 68.5t3.5 50.5q49 66 94 92 q63 39 133 39q88 0 129 -84q37 -84 37 -240q0 -221 -35 -331q-35 -109 -150 -109q-139 0 -176 104.5t-37 409.5z" />
<glyph unicode="7" d="M94 936h56q41 152 59 170q23 23 72 22h514l-377 -860q-10 -23 -16.5 -43t-12.5 -41q-4 -20 -7 -34.5t-3 -24.5q0 -154 137 -154q131 0 131 154q0 39 -26 113q-27 72 -27 163q2 156 117 406q57 125 113.5 245.5t113.5 241.5v27h-729z" />
<glyph unicode="8" d="M68 324q0 -166 122 -261q121 -96 320 -96q184 0 313 98.5t129 237.5q0 152 -94 246t-278 131q170 47 254 127q82 76 81 190q0 145 -112 234q-115 90 -293 90q-184 0 -295 -86q-111 -84 -111 -236q0 -102 62 -178q57 -76 268 -141q-158 -37 -264 -127q-102 -90 -102 -229z M307 322q0 160 49 245q49 84 156 84q109 0 156 -80q43 -77 43 -237q0 -162 -43 -242q-43 -78 -156 -78q-115 0 -160 76q-45 72 -45 232zM342 1006q0 139 37 206.5t131 67.5q102 0 137 -68q31 -65 31 -221q0 -139 -39 -209q-41 -68 -133 -67q-98 0 -131 69q-33 66 -33 222z " />
<glyph unicode="9" d="M66 895q0 -178 110.5 -303t267.5 -125q90 0 168 41q49 27 82 59q-37 -211 -116 -321q-129 -180 -426 -240v-45q317 16 557 244q243 227 243 553q0 262 -135 413q-131 150 -309 150t-311 -127q-131 -123 -131 -299zM311 842q0 221 35 332q35 109 150 108q141 0 178 -104 q35 -109 35 -410q0 -39 -1 -68.5t-3 -50.5q-49 -66 -95 -92q-63 -39 -131 -39q-90 0 -131 84q-37 82 -37 240z" />
<glyph unicode=":" horiz-adv-x="681" d="M211 100q0 -53 39 -92q37 -37 90 -37t92 39q37 37 37 90t-39 93q-37 37 -90 36q-53 0 -92 -39q-37 -37 -37 -90zM211 678q0 -53 39 -92q37 -37 90 -37t92 39q37 37 37 90t-39 92q-37 37 -90 37t-92 -39q-37 -37 -37 -90z" />
<glyph unicode=";" horiz-adv-x="681" d="M213 94q0 -55 33 -90q35 -35 78 -35q78 0 100 56q23 53 41 53q35 0 35 -64q0 -27 -6 -59q-18 -127 -172 -244q-14 -12 -15 -22q0 -8 10 -15q8 -6 21 -6q4 0 20 8q43 31 80 69t66 85q57 94 57 178q0 113 -57.5 170.5t-141.5 57.5q-70 0 -110 -41q-39 -39 -39 -101z M254 678q0 -53 39 -92q37 -37 90 -37t92 39q37 37 37 90t-39 92q-37 37 -90 37t-92 -39q-37 -37 -37 -90z" />
<glyph unicode="&#x3c;" d="M29 403l964 -444v115l-837 381l837 381v114l-964 -444v-103z" />
<glyph unicode="=" d="M61 264h908v111h-908v-111zM61 535h908v110h-908v-110z" />
<glyph unicode="&#x3e;" d="M29 -41l964 444v103l-964 444v-114l837 -381l-837 -381v-115z" />
<glyph unicode="?" horiz-adv-x="909" d="M121 1143q0 -111 106 -113q104 -4 105 98q0 61 -53.5 84t-53.5 39q0 31 72 68q74 35 141 35q96 0 162 -56q63 -55 64 -129q0 -94 -89 -163q-90 -70 -141 -125q-68 -74 -92 -133q-23 -61 -23 -123l23 -193h51v55q0 78 41 115q41 41 139 107q63 43 142 135q76 88 76 219 q0 123 -93 231q-92 104 -256 105q-147 0 -235 -80q-86 -80 -86 -168v-8zM233 100q0 -53 39 -92q37 -37 90 -37t93 39q37 37 37 90t-39 93q-37 37 -91 36q-53 0 -92 -39q-37 -37 -37 -90z" />
<glyph unicode="@" horiz-adv-x="923" d="M-4 920q0 -193 131 -332q131 -143 340 -144q137 0 246 88q113 88 149 179h-55q-41 -82 -135 -146q-100 -66 -217 -65q-154 0 -277 116q-125 119 -125 299q0 172 121 297q119 121 285 121q154 0 258 -98q102 -98 102 -231q0 -131 -80 -226q-78 -96 -151 -96q-25 0 -31 12 l-2 13q0 12 6 34l141 426h-104l-14 -49q-14 39 -54 58q-41 18 -75 18q-123 0 -205 -123q-82 -119 -82 -242q0 -98 45 -143q43 -47 113 -47q45 0 86 23q18 10 31.5 22t23.5 23q16 -41 45 -56q31 -14 66 -14q106 0 200 108q96 109 96 254q0 156 -118 273q-117 117 -301 117 q-190 0 -326 -142q-133 -143 -133 -327zM264 748q0 135 70 272q70 139 155 139q25 0 48 -29q20 -30 20 -63q0 -25 -65 -209q-63 -180 -148 -180q-31 0 -55 16q-25 18 -25 54z" />
<glyph unicode="A" horiz-adv-x="1366" d="M6 0h434v51h-209l127 363h445l121 -363h-211v-51h647v51h-162l-467 1348h-72l-489 -1348h-164v-51zM381 465l207 571l190 -571h-397z" />
<glyph unicode="B" horiz-adv-x="1366" d="M33 0h725q236 0 366 94q133 97 133 271q0 137 -122 233q-119 90 -326 113q193 29 297 114q104 88 104 217q0 166 -129 246t-366 80h-682v-51h203v-1266h-203v-51zM496 51v631h194q139 0 207 -77.5t68 -237.5q0 -150 -52 -232q-49 -84 -147 -84h-270zM496 733v584h206 q121 0 177 -68q53 -66 53 -207q0 -147 -60 -229q-59 -80 -182 -80h-194z" />
<glyph unicode="C" horiz-adv-x="1366" d="M106 678q0 -285 193 -496q190 -213 442 -213q96 0 189 29q86 27 160 86l84 -96h45v418h-60q-59 -225 -166 -306q-109 -80 -229 -80q-180 0 -268 123q-88 121 -88 355v372q0 227 86 355q82 123 258 123q121 0 233 -76q113 -74 156 -289h59v395h-47l-80 -86q-51 43 -133 76 q-78 31 -180 31q-268 0 -463 -213q-190 -213 -191 -508z" />
<glyph unicode="D" horiz-adv-x="1478" d="M53 0h596q377 0 551 199q176 198 176 483q0 299 -186 492q-183 194 -513 194h-3h-621v-51h203v-1266h-203v-51zM516 51v1266h92q307 0 400 -121q88 -123 88 -473q0 -358 -90 -516q-88 -156 -351 -156h-139z" />
<glyph unicode="E" horiz-adv-x="1366" d="M72 0h1163l18 440h-59q-31 -197 -108.5 -293t-276.5 -96h-274v627h55q156 0 207 -82q49 -80 49 -188h57v571h-57q0 -100 -51 -176q-49 -74 -205 -74h-55v588h235q170 0 256 -62q86 -59 131 -256h57l-14 369h-1128v-51h202v-1266h-202v-51z" />
<glyph unicode="F" horiz-adv-x="1251" d="M51 0h666v51h-203v627h55q158 0 209 -82q49 -80 49 -188h58v571h-58q0 -100 -51 -176q-49 -74 -207 -74h-55v588h242q172 0 256 -70q86 -74 131 -297h57l-14 418h-1135v-51h203v-1266h-203v-51z" />
<glyph unicode="G" horiz-adv-x="1478" d="M106 674q0 -303 189 -504q184 -201 469 -201q223 0 369 125q145 123 153 352h144v52h-642v-52h207v-167q0 -143 -69 -201q-66 -57 -174 -58q-201 0 -272.5 133.5t-71.5 419.5v279q0 248 84 373q82 123 276 123q115 0 223 -80q106 -76 166 -285h60v395h-48l-84 -86 q-55 45 -141 76q-84 31 -190 31q-266 0 -457 -213t-191 -512z" />
<glyph unicode="H" horiz-adv-x="1593" d="M57 0h666v51h-203v627h551v-627h-203v-51h666v51h-203v1266h203v51h-666v-51h203v-590h-551v590h203v51h-666v-51h203v-1266h-203v-51z" />
<glyph unicode="I" horiz-adv-x="796" d="M63 0h668v51h-203v1266h203v51h-668v-51h203v-1266h-203v-51z" />
<glyph unicode="J" d="M45 27v-7q0 -39 19 -73q22 -37 61 -66q78 -59 192 -59q186 0 301 120.5t115 313.5v1061h201v51h-678v-51h217v-1282q0 -78 -37 -121q-35 -41 -102 -41q-47 0 -76 14q-31 12 -31 31q0 16 31 59q29 41 29 70q-8 113 -115 113h-8q-115 0 -119 -133z" />
<glyph unicode="K" horiz-adv-x="1478" d="M47 0h666v51h-203v658v608h203v51h-666v-51h203v-1266h-203v-51zM532 709l529 -658h-213v-51h635v51h-92l-654 797l447 469h200v51h-514v-51h234z" />
<glyph unicode="L" horiz-adv-x="1251" d="M47 0h1135l22 461h-63q-6 -195 -94 -301q-86 -109 -273 -109h-264v1266h213v51h-676v-51h203v-1266h-203v-51z" />
<glyph unicode="M" horiz-adv-x="1705" d="M37 0h469v51h-203v1252l414 -1303h69l418 1303v-1252h-203v-51h666v51h-203v1266h203v51h-518l-297 -938l-287 938h-528v-51h203v-1266h-203v-51z" />
<glyph unicode="N" horiz-adv-x="1478" d="M39 0h467v51h-201v1227l869 -1305h61v1344h203v51h-465v-51h196v-844l-606 895h-524v-51h201v-1266h-201v-51z" />
<glyph unicode="O" horiz-adv-x="1478" d="M100 684q0 -289 193 -502q190 -213 444 -213q252 0 447 215q192 211 192 500t-192 502q-195 213 -447 213q-254 0 -446 -215q-190 -213 -191 -500zM401 440v488q0 207 82 313.5t254 106.5q170 0 256 -107q82 -111 82 -313v-488q0 -205 -84 -313q-82 -106 -254 -107 q-172 0 -254 106.5t-82 313.5z" />
<glyph unicode="P" horiz-adv-x="1366" d="M86 0h682v51h-219v570h231q246 0 394 98q145 98 145 278q0 188 -143 281q-143 90 -406 90h-684v-51h203v-1266h-203v-51zM549 672v645h252q123 0 176 -77.5t53 -235.5q0 -168 -57 -250q-55 -82 -180 -82h-244z" />
<glyph unicode="Q" horiz-adv-x="1478" d="M100 684q0 -287 191 -502q127 -143 305 -194q2 -229 106 -307q106 -80 146 -80q0 -2 65 -19q39 -10 95 -15q39 -4 87 -4q19 0 40 1l145 4v49h-41q-195 0 -248 47q-49 43 -47 49q-4 0 -37 70q-24 47 -24 127v6q0 16 1 34.5t3 39.5q172 53 297 192q192 213 192 502 t-192 502q-195 213 -447 213q-254 0 -446 -215q-190 -213 -191 -500zM401 440v488q0 207 82 313.5t254 106.5q170 0 256 -107q82 -111 82 -313v-488q0 -205 -84 -313q-82 -106 -254 -107q-172 0 -254 106.5t-82 313.5z" />
<glyph unicode="R" horiz-adv-x="1478" d="M92 0h666v51h-203v654h107q150 0 215 -109q31 -53 43 -129t18 -174l6 -88q31 -145 150 -201q63 -29 149 -29q82 0 184 25v47q-53 -6 -86 -6q-47 0 -65 10q-37 18 -49 66l-2 100q-2 92 -17.5 172t-50.5 148q-68 133 -323 186q217 33 325 117q106 82 107 217 q0 166 -115 237q-111 74 -338 74h-721v-51h203v-1266h-203v-51zM555 756v561h201q127 0 180 -68q49 -65 49 -215q0 -143 -61.5 -210.5t-194.5 -67.5h-174z" />
<glyph unicode="S" horiz-adv-x="1138" d="M141 -12h35l98 86q57 -49 136 -78q68 -27 157 -27q188 0 310 127q118 125 118 332q0 188 -92 293q-90 100 -330 162q-152 39 -231 78q-78 35 -78 151q0 96 76 166t180 70q145 0 240 -101q94 -104 112 -256h66v387h-39l-78 -80q-63 51 -137 76t-160 25q-160 0 -268 -109 q-104 -109 -104 -276q0 -162 86 -262q86 -98 278 -150q160 -43 266 -106q100 -61 101 -191q0 -119 -90 -203q-88 -82 -220 -82q-154 0 -248 111t-124 264h-60v-407z" />
<glyph unicode="T" horiz-adv-x="1366" d="M74 930h65q35 238 127 313q94 74 232 74h57v-1266h-215v-51h690v51h-215v1266h53q137 0 232 -76q92 -72 127 -311h65l-22 438h-1174z" />
<glyph unicode="U" horiz-adv-x="1478" d="M31 1317h202v-842q0 -274 119 -391q119 -115 387 -115q266 0 385 113q119 111 119 364v871h203v51h-469v-51h203v-905q0 -182 -93 -281q-90 -96 -264 -96q-170 0 -250 86q-80 82 -79 262v934h202v51h-665v-51z" />
<glyph unicode="V" horiz-adv-x="1366" d="M0 1317h170l487 -1348h62l475 1348h170v51h-444v-51h213l-347 -959l-348 959h211v51h-649v-51z" />
<glyph unicode="W" horiz-adv-x="1933" d="M31 1317h155l492 -1348h65l228 629l231 -629h64l481 1348h149v51h-376v-51h166l-363 -989l-197 534l162 455h135v51h-307h-520h-565v-51zM444 1317h152h115l229 -629l-127 -362zM950 1317h166h117l-135 -352z" />
<glyph unicode="X" horiz-adv-x="1478" d="M35 0h506v51h-242l363 516l321 -516h-211v-51h668v51h-154l-473 744l361 522h192v51h-496v-51h232l-322 -469l-286 469h202v51h-653v-51h158l422 -696l-396 -570h-192v-51z" />
<glyph unicode="Y" horiz-adv-x="1366" d="M2 1317h150l430 -696v-570h-217v-51h704v51h-227v615l356 651h168v51h-442v-51h213l-330 -588l-348 588h209v51h-666v-51z" />
<glyph unicode="Z" horiz-adv-x="1251" d="M80 0h1075l16 440h-55q-59 -281 -160 -336q-102 -53 -247 -53h-332l790 1258v59h-987l-33 -369h64q47 213 149 267q100 51 248 51h269l-797 -1262v-55z" />
<glyph unicode="[" horiz-adv-x="796" d="M147 -479h504v76l-338 -5v1731h338v76h-504v-1878z" />
<glyph unicode="\" horiz-adv-x="1064" d="M252 1399l455 -1430h118l-454 1430h-119z" />
<glyph unicode="]" horiz-adv-x="796" d="M147 -403v-76h504v1878h-504v-76l338 4v-1730h-338z" />
<glyph unicode="^" d="M23 354h112l375 836l375 -836h112l-438 967h-98z" />
<glyph unicode="_" d="M0 -395v-119h1024v119h-1024z" />
<glyph unicode="`" horiz-adv-x="681" d="M106 1294q0 -35 50 -67l317 -217h102q-41 41 -79.5 82t-79.5 82q-39 41 -78 80.5t-80 78.5q-33 33 -68 33q-33 0 -59 -27q-25 -23 -25 -45z" />
<glyph unicode="a" d="M102 229q0 -113 56 -188q55 -74 155 -74q76 0 156 35q74 33 145 111q6 -57 48 -103q37 -41 114 -41q68 0 111 31q43 33 82 78l-25 28q-4 -4 -13 -11t-20 -17q-23 -18 -39 -19q-23 0 -36 13q-12 8 -13 28v734q0 113 -94 182q-97 69 -233 69h-4q-150 0 -242 -61 q-90 -62 -90 -148q0 -96 100 -96q96 0 105 88q0 43 -19 78q-16 33 -16 37q0 18 47 41q43 20 100 20q47 0 94 -36q43 -37 43 -90v-334h-53q-25 0 -51.5 -2t-51 -4.5t-46.5 -6.5q-137 -25 -224 -112q-86 -86 -86 -230zM317 293q0 100 39 158q37 57 107 75q31 6 53 6 q18 0 35 -6q33 -14 63 -37v-127q0 -115 -47 -204q-45 -88 -121 -88q-68 0 -98.5 63.5t-30.5 159.5z" />
<glyph unicode="b" horiz-adv-x="1138" d="M33 0q63 0 121.5 -1t111.5 -1q106 -4 135 -18v131q53 -74 119 -109q59 -33 133 -33q160 0 275 164q112 166 112 393q0 223 -120 394q-116 165 -275 165h-2q-63 0 -127 -34q-61 -35 -115 -115v463q-59 -10 -105 -16.5t-79 -10.5q-33 -2 -79 -3t-105 -1v-51h147v-1266h-147 v-51zM401 387v256q0 164 74 285q69 116 174 116h2q66 0 109 -92q18 -47 28.5 -104t10.5 -127v-387q0 -147 -39 -234q-41 -90 -113 -90q-98 0 -172 109q-74 106 -74 268z" />
<glyph unicode="c" horiz-adv-x="909" d="M80 526q0 -233 112.5 -395t278.5 -162q135 0 231 97t129 296l-51 -2q-12 -111 -86 -229q-72 -121 -188 -121q-106 0 -148 96q-39 92 -39 281v277q0 174 43 278q41 102 130 102q51 0 100 -18q49 -14 55 -47q0 -23 -33 -49q-33 -25 -32 -74q12 -96 114 -96q104 0 115 110 q0 104 -96.5 159.5t-208.5 55.5q-186 0 -305 -159q-121 -162 -121 -400z" />
<glyph unicode="d" horiz-adv-x="1138" d="M84 526q0 -236 104 -397q104 -160 265 -160q76 0 149 37q72 39 123 135v-157q23 4 61.5 8t96.5 4q57 4 108 4h103v51h-150v1348q-59 -10 -105 -16.5t-79 -10.5q-33 -2 -79 -3t-106 -1v-51h148v-404q-43 100 -111 138q-64 34 -127 34h-4q-160 0 -278 -167 q-119 -164 -119 -392zM330 340v375q0 147 37 239q35 90 106 90q106 0 178 -126q74 -123 74 -318v-192q0 -156 -78 -277q-74 -121 -170 -121q-72 0 -110 92q-37 92 -37 238z" />
<glyph unicode="e" horiz-adv-x="909" d="M66 508q0 -215 118.5 -377t272.5 -162q135 0 241 103q103 102 146 315h-51q-10 -61 -36 -123.5t-65 -126.5q-78 -127 -203 -127q-100 0 -139 99q-41 100 -41 278v197h510q14 0 15 14q2 8 3 17.5t1 21.5q0 186 -107 317q-104 131 -254 131q-170 0 -290.5 -170t-120.5 -407 zM309 635v37q0 182 31 278q27 94 123 94q74 0 110 -71q37 -72 37 -185v-12l-4 -141h-297z" />
<glyph unicode="f" horiz-adv-x="681" d="M25 1022h163v-47v-924h-159v-51h557v51h-176v971h194v51h-194v45q0 49 -8 92q-3 11 -3 21q0 31 19 57q45 70 96 70q14 0 46 -3t42 -7q18 -10 19 -29q0 -10 -31 -35q-29 -23 -29 -59q0 -94 98 -95q103 1 109 101q2 68 -55 119q-53 49 -152 49q-41 0 -88 -9.5t-93 -28 t-85 -47t-66 -65.5q-20 -29 -28 -47t-11.5 -34.5t-2.5 -38t1 -56.5h-163v-51z" />
<glyph unicode="g" horiz-adv-x="909" d="M74 184q0 -225 151 -241q-72 -41 -104 -74q-47 -47 -47 -129q0 -92 98 -156q96 -63 252 -63q186 0 317 106q129 106 129 287q0 102 -49 156q-47 49 -127 49q-287 4 -422 6q-133 4 -133 102q0 94 80 138q76 43 221 43q133 0 219 94q82 98 82 246q0 117 -59 200 q4 8 10 15.5t13 15.5q20 25 40 25q16 0 33 -35q14 -33 64 -33q23 0 45 22q18 21 18 56q0 37 -28 59q-27 20 -58 21q-37 0 -78 -23q-29 -18 -86 -90l-6 6q-90 98 -219 98q-133 0 -223 -96q-86 -96 -86 -252q0 -139 94 -233q12 -12 26.5 -24.5t30.5 -22.5q-94 -31 -145 -95 q-53 -66 -53 -178zM207 -227q0 70 20 112q14 35 84 52q74 -4 158 -7.5t182 -3.5q78 0 113 -20q35 -19 35 -60q0 -129 -117 -202q-119 -72 -250 -72q-117 0 -172 61q-53 59 -53 140zM319 748q0 84 3.5 141t11.5 90q12 65 99 65h3q90 0 101 -65q4 -33 6 -90.5t2 -143.5 q0 -88 -3 -147t-7 -92q-8 -63 -105 -64q-88 0 -100 68q-4 33 -7.5 92.5t-3.5 145.5z" />
<glyph unicode="h" horiz-adv-x="1138" d="M43 1317h147v-1266h-139v-51h484v51h-123v475q0 233 71 361q70 125 156 125q68 0 90 -86q20 -80 21 -244v-631h-129v-51h485v51h-135v623q0 201 -60 307q-59 104 -196 104q-86 0 -168 -45q-82 -43 -135 -151v510q-59 -10 -105.5 -16.5t-79.5 -10.5q-33 -2 -79 -3t-105 -1 v-51z" />
<glyph unicode="i" horiz-adv-x="569" d="M20 0h525v51h-150v1032l-368 -10v-51h147v-971h-154v-51zM168 1288q0 -47 35 -82t82 -35t81.5 35t34.5 84q0 47 -34.5 82t-81.5 35t-82 -35t-35 -84z" />
<glyph unicode="j" horiz-adv-x="681" d="M-37 -324q0 -55 47 -106q45 -49 125 -49q172 0 264.5 141.5t92.5 405.5v1015l-369 -10v-51h147v-1210q0 -113 -20 -174q-20 -63 -68 -64q-23 0 -37 8t-14 27q0 14 12 43q12 27 13 47q-4 84 -86 84h-13q-94 0 -94 -107zM264 1309q0 -47 35 -82t82 -35t82 35t35 84 q0 47 -35 81.5t-82 34.5t-82 -34.5t-35 -83.5z" />
<glyph unicode="k" horiz-adv-x="1138" d="M45 1317h148v-1266h-132v-51h480v51h-127v533v815q-59 -10 -105.5 -16.5t-79.5 -10.5q-33 -2 -79 -3t-105 -1v-51zM440 584l312 -533h-117v-51h455v51h-80l-383 625l225 346h180v51h-440v-51h170z" />
<glyph unicode="l" horiz-adv-x="569" d="M23 0h524v51h-150v1348q-59 -10 -105 -16.5t-79 -10.5q-33 -2 -79 -3t-105 -1v-51h147v-1266h-153v-51z" />
<glyph unicode="m" horiz-adv-x="1593" d="M37 0h475v51h-115v567q0 176 67.5 285t113.5 109h16q63 0 82 -58q18 -59 18 -176v-727h-104v-51h438v51h-113v557q0 203 64 303q61 100 135 101h16q55 0 68 -58q12 -59 12 -176v-727h-106v-51h463v51h-135v623q0 211 -51.5 311t-194.5 100q-96 0 -168 -53 q-66 -51 -100 -117q-27 76 -84 123q-53 47 -162 47q-80 0 -156 -45q-74 -43 -123 -151v194l-356 -10v-51h139v-971h-139v-51z" />
<glyph unicode="n" horiz-adv-x="1138" d="M47 0h485v51h-129v475q0 233 72 361q70 125 158 125q70 0 92 -86q10 -41 15 -102.5t5 -141.5v-631h-129v-51h476v51h-131v623q0 205 -58 307q-59 104 -194 104q-88 0 -170 -45q-82 -43 -136 -151v194l-356 -10v-51h139v-971h-139v-51z" />
<glyph unicode="o" d="M80 526q0 -223 131 -391q129 -166 299 -166q172 0 303 168q129 166 129 389q0 225 -131 394q-128 165 -299 165h-2q-170 0 -301 -167q-129 -166 -129 -392zM326 393v269q0 190 39 286q41 96 145 96q106 0 147 -98q39 -92 39 -284v-269q0 -190 -39 -287q-41 -96 -147 -96 t-145 99q-39 92 -39 284z" />
<glyph unicode="p" horiz-adv-x="1138" d="M35 1022h147v-1450h-145v-51h508v51h-142v549q41 -84 109 -119q63 -33 133 -33q160 0 281 166q116 162 116 391q0 231 -114 396q-110 163 -271 163h-2q-70 0 -135 -41q-61 -37 -121 -129v168l-364 -10v-51zM403 414v262q0 70 21.5 132t62.5 122q77 114 161 114h1 q72 0 113 -83q39 -80 39 -218v-432q0 -129 -41 -217q-37 -84 -107 -84q-111 0 -180 117q-70 113 -70 287z" />
<glyph unicode="q" horiz-adv-x="1138" d="M88 539q0 -229 119 -392q116 -165 276 -165h2q68 0 133 34q66 39 109 115v-547h-143v-51h512v51h-148v1426l150 6v63l-371 8v-200q-49 113 -116.5 162t-135.5 49q-162 0 -274 -164q-113 -166 -113 -395zM328 365v337q0 154 37 256q37 98 106 99q129 0 193 -137 q63 -133 63 -392v-98q0 -170 -74 -289q-71 -118 -174 -118h-2q-70 0 -108 98q-41 98 -41 244z" />
<glyph unicode="r" horiz-adv-x="909" d="M61 1022h136v-971h-121v-51h526v51h-184v412q0 215 67 381q68 164 148 164q4 0 6 -1t6 -1q4 -4 4 -11l-8 -67q6 -90 107 -90h8h2q108 0 112 110q0 57 -43 99q-40 38 -112 38h-4q-88 0 -162 -55q-70 -51 -135 -174v227l-353 -10v-51z" />
<glyph unicode="s" horiz-adv-x="796" d="M104 -6h33l60 61q47 -41 102 -65q57 -23 111 -23q137 0 211 90q71 90 71 256q0 152 -53 230q-27 39 -79 64.5t-130 43.5q-131 33 -180 76q-43 37 -43 111q0 86 45 145q43 61 125 61q84 0 145 -69q59 -70 66 -144h53v263h-35l-33 -74q-37 29 -86 47q-53 18 -110 18 q-117 0 -191 -88q-74 -86 -73 -235q0 -162 84 -234q41 -35 88 -58.5t100 -35.5q123 -29 172 -67q49 -41 49 -142q0 -94 -57 -153q-55 -61 -131 -62q-102 0 -172 80q-68 80 -86 203h-56v-299z" />
<glyph unicode="t" horiz-adv-x="681" d="M53 1012h131v-877q0 -92 49 -129q45 -37 160 -37q125 0 182 58q62 57 76 110l-41 21q-16 -47 -47 -78q-29 -31 -80 -31q-43 0 -61 21q-16 23 -16 69v873h192v61h-192v225l-222 -53v-172h-131v-61z" />
<glyph unicode="u" horiz-adv-x="1138" d="M45 1022h133v-725q0 -150 66 -240q61 -88 182 -88q88 0 166 47q76 43 141 152v-184q35 6 63.5 9t49 5t82.5 2h166v51h-142v1030l-374 -8v-51h153v-571q0 -170 -72 -295q-72 -121 -170 -121q-47 0 -69 53q-20 49 -21 145v848l-354 -8v-51z" />
<glyph unicode="v" d="M43 1022h104l330 -1053h55l330 1053h113v51h-316v-51h142l-217 -715l-205 715h129v51h-465v-51z" />
<glyph unicode="w" horiz-adv-x="1366" d="M10 1022h101l286 -1053h64l205 795l227 -795h65l265 1053h120v51h-323v-51h139l-168 -748l-217 799h-98v-29l-184 -784l-156 762h137v51h-463v-51z" />
<glyph unicode="x" d="M39 0h340v51h-141l208 395l191 -395h-111v-51h451v51h-86l-303 557l219 414h137v51h-338v-51h135l-188 -371l-176 371q18 6 35 6l20 -2q14 -2 27.5 -3t27.5 -1v51h-448v-51h90l283 -535l-242 -436h-131v-51z" />
<glyph unicode="y" d="M39 1022h100l361 -967l-47 -186q-35 -78 -55.5 -123t-28.5 -59q-16 -25 -25 -25q-8 0 -14 8q-2 6 -11 15q-37 45 -86 45q-8 0 -16 -1t-18 -3q-74 -18 -74 -99q0 -51 37 -78q38 -28 74 -28h2q76 0 141 84q33 41 61.5 91t46.5 111l373 1215h115v51h-324v-51h148l-195 -647 l-227 647h131v51h-469v-51z" />
<glyph unicode="z" horiz-adv-x="909" d="M61 0h736v348h-58q-12 -158 -63 -227.5t-189 -69.5h-168l480 961v61h-690v-317h53q20 135 82 202q57 63 170 64h131l-484 -965v-57z" />
<glyph unicode="{" horiz-adv-x="796" d="M115 457q100 -16 149 -64q47 -47 47 -149v-473q0 -109 76 -179q76 -71 289 -67q-72 14 -135 67q-61 51 -62 175v393q0 150 -57 215q-59 66 -178 84q121 23 178 88q57 63 57 213v393q0 123 64 174q63 53 133 72q-211 0 -289 -72q-76 -70 -76 -178v-473q0 -102 -47 -150 q-49 -49 -149 -69z" />
<glyph unicode="|" horiz-adv-x="1146" d="M518 -512h113v2048h-113v-2048z" />
<glyph unicode="}" horiz-adv-x="796" d="M115 -479q211 0 288 71q76 70 76 179v473q0 102 47 149q46 47 148 70q-102 14 -150 63q-45 49 -45 150v473q0 109 -76 178q-78 70 -288 68q70 -16 135 -68q61 -53 61 -174v-393q0 -150 58 -215q55 -63 176 -86q-121 -18 -178 -86q-55 -66 -56 -213v-393q0 -123 -63 -175 q-68 -55 -133 -71z" />
<glyph unicode="~" d="M27 385l82 -55q35 55 81 98q45 45 109 45q59 0 198.5 -63.5t227.5 -63.5q98 0 168 64q67 61 108 131l-83 55q-16 -27 -38 -51.5t-44 -46.5q-45 -45 -109 -45q-57 0 -199 63q-139 63 -227 64q-98 0 -168 -64q-68 -63 -106 -131z" />
<glyph unicode="&#xa1;" horiz-adv-x="681" d="M203 -356q0 -61 41 -97q39 -33 94 -32q57 0 96 33t39 96q0 37 -51 278q-51 238 -57 553h-54q-4 -156 -17 -294t-40 -261q-51 -238 -51 -276zM209 813q0 -53 39 -92q37 -37 90 -37t92 39q37 37 37 90t-39 92q-37 37 -90 37t-92 -39q-37 -37 -37 -90z" />
<glyph unicode="&#xa2;" d="M131 524q0 -229 113 -391q53 -76 129 -121l-94 -309h77l86 281q35 -10 78 -11q133 0 230 97q94 94 129 297l-52 -2q-12 -109 -83.5 -230t-186.5 -121q-70 0 -98 29l221 723q6 -14 63 -14q104 0 115 110q0 104 -94 160q-2 2 -4 2l88 293h-78l-80 -262q-61 23 -135 22 q-184 0 -303 -159q-121 -158 -121 -394zM371 385v277q0 172 43 274q39 100 127 100q51 0 100 -18q31 -13 33 -17l-45 -147l-223 -733q-35 92 -35 264z" />
<glyph unicode="&#xa3;" d="M33 113q0 -70 39 -111q37 -43 114 -43q47 0 111 29q61 29 115 102q29 -23 61.5 -44t67.5 -44q70 -43 174 -43q123 0 184.5 100t67.5 301l-47 7q0 -98 -66 -152q-63 -51 -172 -51q-27 0 -53.5 3t-57.5 7q-29 4 -55.5 10t-48.5 17q33 82 49 164q8 39 11 76.5t3 72.5 q0 43 -6 84q-2 39 -12 64h242v55h-248q-6 35 -13.5 72.5t-17.5 78.5q-18 82 -18 162q0 129 57 187q59 59 154 59q70 0 133 -35q61 -35 61 -88q0 -29 -35 -29q-8 0 -28 4l-19 2q-47 0 -71 -75q-2 -10 -2 -27q0 -111 106 -110h8q127 4 127 153q0 119 -90 184.5t-205 65.5 q-195 0 -301 -123q-109 -125 -108 -301q0 -33 1 -55.5t3 -38.5q2 -14 6 -36t8 -50h-215v-55h225q0 -90 52 -226q39 -106 38 -170q0 -10 -1 -21.5t-3 -21.5q-31 16 -69 25q-20 4 -38 6t-34 2q-86 0 -137 -41q-47 -41 -47 -102zM82 92q0 55 37 80q39 23 84 23q25 0 65 -13 q39 -10 80 -43q-27 -57 -74 -94t-88 -37q-45 0 -75 25q-29 25 -29 59z" />
<glyph unicode="&#xa5;" d="M6 1270h100l324 -672v-63h-274v-52h274v-116h-274v-52h274v-264h-174v-51h569v51h-184v264h274v52h-274v116h274v52h-274v108l266 627h111v51h-311v-51h137l-240 -565l-254 565h150v51h-494v-51z" />
<glyph unicode="&#xa6;" horiz-adv-x="1146" d="M516 360v-872h113v872h-113zM516 664h113v872h-113v-872z" />
<glyph unicode="&#xa7;" d="M150 612q0 -133 90 -235q86 -98 194 -182q119 -92 184 -154q63 -61 64 -137q0 -80 -61 -113q-63 -35 -134 -35q-53 0 -96 21q-45 18 -45 41q0 16 33 42.5t33 76.5q0 84 -86 83h-13q-96 0 -96 -102q0 -92 80 -149q78 -53 195 -54q125 0 217 68q90 68 90 182q0 84 -51 156 q-51 76 -148 151q10 -2 20.5 -3t20.5 -1q76 0 147 49q89 64 89 185q0 133 -91 235q-86 98 -194 183q-121 92 -184.5 153.5t-63.5 136.5q0 80 57 113q57 35 121 35q43 0 82 -21q41 -18 41 -41q0 -16 -32.5 -42.5t-32.5 -75.5q0 -86 88 -86h8q49 0 73.5 27.5t24.5 76.5 q0 94 -74 150q-72 53 -186 53q-117 0 -203 -68q-84 -68 -84 -182q0 -82 49 -156q51 -78 150 -151q-10 2 -20.5 3t-20.5 1q-74 0 -147 -51q-88 -63 -88 -183zM256 664q0 57 41 96q37 41 94 41q47 0 119 -43q35 -23 63.5 -44.5t51.5 -41.5q29 -29 55.5 -54.5t48.5 -52.5 q41 -53 41 -112q0 -55 -41 -96.5t-94 -41.5q-47 0 -121 43q-68 41 -113 86q-35 25 -59.5 52.5t-44.5 54.5q-41 53 -41 113z" />
<glyph unicode="&#xa8;" horiz-adv-x="681" d="M23 1098q0 -43 32 -76q31 -31 76 -31t78 33q31 31 31 74t-33 76q-31 31 -76 30q-45 0 -78 -33q-31 -31 -30 -73zM438 1098q0 -43 33 -76q31 -31 76 -31t78 33q30 31 30 74t-32 76q-31 31 -76 30q-45 0 -78 -33q-31 -31 -31 -73z" />
<glyph unicode="&#xa9;" horiz-adv-x="1556" d="M72 684q0 -293 209 -502q207 -207 499 -207q291 0 500 209q207 207 207 500t-209 502q-207 207 -500 207q-291 0 -499 -209q-207 -207 -207 -500zM143 684q0 262 186.5 448.5t450.5 186.5q262 0 448.5 -186.5t186.5 -448.5t-186.5 -448.5t-450.5 -186.5 q-262 0 -448.5 186.5t-186.5 448.5zM360 702q0 -178 127 -305q125 -123 297 -123q82 0 168 39t131 74v152h-36q-23 -98 -93 -166q-68 -68 -180 -68q-125 0 -170 107q-45 109 -45 288q0 197 39 295q37 102 156 103q137 0 200 -64q66 -66 80 -155h37v161q-59 18 -135 56 q-80 35 -152 34q-178 0 -301 -131q-123 -129 -123 -297z" />
<glyph unicode="&#xaa;" horiz-adv-x="614" d="M25 1051q0 -66 36 -111q33 -43 99 -43q53 0 102 21q49 23 94 63q4 -35 31 -59q25 -25 74 -25q43 0 71 18q25 17 54 46l-15 18q-4 -4 -9 -8t-13 -10q-16 -10 -25 -11q-16 0 -24 8q-8 6 -8 17v432q0 66 -62 109q-59 41 -154 40q-98 0 -155 -36q-61 -39 -60 -90 q4 -53 66 -54q61 0 68 51q0 27 -13 46q-10 20 -10 22q0 12 31 25q27 12 63 12q33 0 62 -23q29 -18 28 -53v-196l-131 -7q-90 -16 -145 -67q-55 -53 -55 -135zM164 1087q0 59 24 95q25 33 70 45l29 2q16 0 28 -4q23 -8 41 -21v-76q0 -70 -30 -120q-27 -51 -78 -52 q-45 0 -66 39q-18 37 -18 92z" />
<glyph unicode="&#xab;" d="M168 410q0 -10 14 -19q45 -39 86 -74.5t80 -70.5t77 -73l79 -79q8 -4 12 -4l8 2q4 4 4 12q0 6 -4 19q-35 74 -94 153q-29 41 -56.5 74t-54.5 60q53 53 113 133q57 82 92 153q4 16 4 21q0 4 -4 8t-10 4q-2 0 -10 -4l-80 -80t-78 -73.5t-79 -70.5t-85 -73q-14 -14 -14 -18z M494 410q0 -10 14 -19q45 -39 86 -74.5t80 -70.5t76.5 -73t78.5 -79q8 -4 13 -4l8 2q4 4 4 12q0 6 -4 19q-35 74 -94 153q-29 41 -56.5 74t-54.5 60q53 53 113 133q57 82 92 153q4 16 4 21q0 4 -4 8t-10 4q-2 0 -11 -4q-41 -41 -79.5 -80t-77.5 -73.5t-79 -70.5t-85 -73 q-14 -14 -14 -18z" />
<glyph unicode="&#xac;" d="M59 535h797v-441h111v551h-908v-110z" />
<glyph unicode="&#xad;" horiz-adv-x="681" d="M66 590h555v108h-555v-108z" />
<glyph unicode="&#xae;" horiz-adv-x="1556" d="M72 684q0 -293 209 -502q207 -207 499 -207q291 0 500 209q207 207 207 500t-209 502q-207 207 -500 207q-291 0 -499 -209q-207 -207 -207 -500zM143 684q0 262 186.5 448.5t450.5 186.5q262 0 448.5 -186.5t186.5 -448.5t-186.5 -448.5t-450.5 -186.5 q-262 0 -448.5 186.5t-186.5 448.5zM371 313h434v29h-131v369h41q162 0 196 -93q33 -92 68 -305h248v27q-59 2 -80 18q-20 12 -25 62q-10 92 -51 178q-43 90 -215 121q152 20 217 67q63 45 64 125q0 74 -64 123q-61 49 -213 49h-489v-28h133v-713h-133v-29zM674 745v306h160 q55 0 88 -33q30 -31 30 -115q0 -74 -37 -117q-37 -41 -139 -41h-102z" />
<glyph unicode="&#xaf;" horiz-adv-x="681" d="M16 991h648v121h-648v-121z" />
<glyph unicode="&#xb0;" horiz-adv-x="819" d="M102 1014q0 -127 90.5 -217t217.5 -90t217 90t90 217t-90 217t-217 90t-217.5 -90t-90.5 -217zM184 1014q0 94 65.5 159.5t160.5 65.5q94 0 159.5 -65.5t65.5 -159.5t-65.5 -160t-159.5 -66t-160 66t-66 160z" />
<glyph unicode="&#xb1;" d="M59 0h914v111h-914v-111zM59 492h402v-308h110v308h402v110h-402v307h-110v-307h-402v-110z" />
<glyph unicode="&#xb2;" horiz-adv-x="614" d="M39 528h526l8 228h-30q0 -70 -15 -92q-16 -23 -53 -23h-346l297 242q27 20 51.5 43.5t48.5 52.5q49 51 49 141q0 84 -71 144q-70 57 -182 57q-109 0 -181 -57q-74 -59 -73 -142q0 -37 20 -69q23 -35 70 -35q76 0 82 63v13q0 51 -68 57q-14 0 -39 -6l-8 -2q-14 0 -16 18 q0 47 47 82t108 35q66 0 111 -51t45 -129q0 -106 -45 -170q-23 -33 -49.5 -65t-61.5 -60l-225 -195v-80z" />
<glyph unicode="&#xb3;" horiz-adv-x="614" d="M41 649q-2 -55 65 -100q66 -41 156 -41q131 0 225 65q93 64 93 158q0 90 -68 145.5t-215 67.5q135 31 188 82q53 53 54 119q0 74 -72 127q-72 49 -180 49q-86 0 -144 -39q-59 -41 -59 -94q0 -72 72 -72q61 0 67 55v9q0 23 -26 43q-29 16 -29 28q0 14 33 29q35 14 65 14 q66 0 96 -37q29 -39 29 -104q0 -90 -43 -141q-23 -27 -50.5 -38t-61.5 -13l-72 -3q-23 0 -29 -20q0 -12 27 -12h41q113 0 166 -49.5t53 -153.5q0 -84 -45 -135q-47 -49 -123 -49q-51 0 -86 14q-35 16 -35 35q0 6 31 28q27 18 31 54q-2 63 -68 63h-8q-74 0 -78 -84z" />
<glyph unicode="&#xb4;" horiz-adv-x="681" d="M111 1010h102l317 217q48 32 48 67q0 20 -25 45q-31 27 -57 27q-35 0 -68 -33q-41 -39 -81 -79t-81 -80q-39 -41 -77.5 -82t-77.5 -82z" />
<glyph unicode="&#xb5;" horiz-adv-x="1138" d="M47 1022h133v-727q0 -111 27 -184q25 -74 24 -129q0 -57 -28 -166q-25 -102 -25 -185q0 -82 109 -82t108 82q0 41 -30 144q-8 25 -23.5 57.5l-31 65t-28 60.5t-12.5 42q0 10 12.5 6t29 -12t32.5 -16.5t27 -8.5h116q68 0 134 47q61 43 110 152v-184q35 6 63.5 9t49 5 t82.5 2h166v51h-142v1030l-375 -8v-51h154v-571q0 -170 -72 -295q-72 -121 -168 -121q-45 0 -67 53q-20 49 -21 145v848l-354 -8v-51z" />
<glyph unicode="&#xb6;" horiz-adv-x="1269" d="M152 963q0 -178 127 -299q123 -117 307 -146v-807h108v1602h205v-1602h109v1602h110v84h-444q-223 0 -372.5 -125t-149.5 -309z" />
<glyph unicode="&#xb7;" horiz-adv-x="681" d="M205 455q0 -53 39 -93q37 -37 90 -36q53 0 92 39q37 37 37 90t-39 92q-37 37 -90 37t-92 -39q-37 -37 -37 -90z" />
<glyph unicode="&#xb8;" horiz-adv-x="681" d="M129 -401q31 -20 68 -29q45 -10 100 -10q121 0 192 43q70 43 70 125q0 68 -47 110q-47 41 -121 41h-18t-19 -2q-8 -2 -15 -4t-15 -6l55 133h-76l-88 -203l33 -8l61 10q37 0 64 -26q25 -25 24 -60q0 -33 -34.5 -55.5t-86.5 -22.5q-47 0 -77 11q-25 8 -45 18z" />
<glyph unicode="&#xb9;" horiz-adv-x="614" d="M76 1276h114q31 0 41 -10q10 -6 11 -43v-664h-158v-31h457v31h-156v762q-35 -2 -66.5 -4t-64.5 -6q-31 -2 -75 -3t-103 -1v-31z" />
<glyph unicode="&#xba;" horiz-adv-x="614" d="M29 1227q0 -133 86 -232q82 -98 194 -98q111 0 197 98q84 101 84 232q0 133 -86 231q-84 98 -195 98t-196 -98q-84 -100 -84 -231zM188 1147v160q0 113 27 168q25 57 94 57q70 0 97 -57q25 -59 24 -168v-160q0 -113 -27 -168q-25 -57 -94 -57q-70 0 -96 57 q-25 57 -25 168z" />
<glyph unicode="&#xbb;" d="M168 102q0 -6 4 -10l10 -2q4 0 13 4q41 41 79.5 79t77.5 73t79 71.5t87 73.5q14 15 14 19t-14 18q-92 74 -168 143q-39 35 -76.5 74t-78.5 80q-8 4 -13 4q-6 0 -10 -4t-4 -12q0 -4 4 -17q35 -74 94 -153q31 -41 59.5 -74t55.5 -59q-27 -27 -55.5 -60t-59.5 -74 q-59 -80 -94 -153q-4 -16 -4 -21zM494 102q0 -6 4 -10l10 -2q4 0 12 4q41 41 80 79t78 73t79 71.5t87 73.5q14 15 14 19t-14 18q-92 74 -168 143q-39 35 -77 74t-79 80q-8 4 -12 4q-6 0 -10 -4t-4 -12q0 -4 4 -17q35 -74 94 -153q31 -41 59.5 -74t55.5 -59 q-27 -27 -55.5 -60t-59.5 -74q-59 -80 -94 -153q-4 -16 -4 -21z" />
<glyph unicode="&#xbc;" horiz-adv-x="1536" d="M20 1276h115q31 0 41 -10q10 -6 10 -43v-664h-157v-31h456v31h-155v762q-35 -2 -67 -4t-64 -6q-31 -2 -75 -3t-104 -1v-31zM332 0h106l920 1321h-107zM899 209h340v-178h-102v-31h346v31h-101v178h97v-92h34v217h-34v-90h-97v549h-96l-387 -549v-35zM946 244l293 415 v-415h-293z" />
<glyph unicode="&#xbd;" horiz-adv-x="1536" d="M23 1276h114q31 0 41 -10q10 -6 10 -43v-664h-157v-31h456v31h-155v762q-35 -2 -67 -4t-64 -6q-31 -2 -75 -3t-103 -1v-31zM281 0h106l920 1321h-107zM977 0h526l8 227h-30q0 -70 -15 -92q-16 -23 -53 -22h-346l297 241q27 20 51.5 44t48.5 53q49 51 49 141q0 84 -71 143 q-70 57 -182 58q-109 0 -181 -58q-74 -59 -73 -141q0 -37 20 -70q23 -35 70 -35q76 0 82 64v12q0 51 -68 58q-14 0 -39 -7l-8 -2q-14 0 -16 19q0 47 47 82t108 35q66 0 111 -51.5t45 -129.5q0 -106 -45 -170q-23 -33 -49.5 -64.5t-61.5 -60.5l-225 -194v-80z" />
<glyph unicode="&#xbe;" horiz-adv-x="1536" d="M20 649q-2 -55 66 -100q66 -41 156 -41q131 0 225 65q92 64 92 158q0 90 -67.5 145.5t-215.5 67.5q135 31 189 82q53 53 53 119q0 74 -72 127q-72 49 -180 49q-86 0 -143 -39q-59 -41 -60 -94q0 -72 72 -72q61 0 68 55v9q0 23 -27 43q-29 16 -29 28q0 14 33 29 q35 14 66 14q66 0 96 -37q29 -39 29 -104q0 -90 -43 -141q-23 -27 -50.5 -38t-62.5 -13l-72 -3q-23 0 -28 -20q0 -12 26 -12h41q113 0 166 -49.5t53 -153.5q0 -84 -45 -135q-47 -49 -123 -49q-51 0 -86 14q-35 16 -34 35q0 6 30 28q27 18 31 54q-2 63 -68 63h-8 q-74 0 -78 -84zM317 0h107l919 1321h-106zM901 209h340v-178h-102v-31h346v31h-101v178h97v-92h35v217h-35v-90h-97v549h-96l-387 -549v-35zM948 244l293 415v-415h-293z" />
<glyph unicode="&#xbf;" horiz-adv-x="909" d="M121 -147q0 -125 94 -232q92 -104 254 -104q147 0 238 80q86 79 86 167v9q0 111 -105 110h-8q-98 0 -98 -96q0 -61 53 -83.5t53 -39.5q0 -31 -72 -67q-74 -35 -143 -35q-98 0 -161.5 55t-63.5 129q0 94 88 164q90 70 141 125q70 76 92 133q25 55 25 123l-23 192h-53v-55 q0 -76 -39 -115q-33 -33 -141 -106q-66 -43 -141 -135q-76 -88 -76 -219zM422 815q0 -53 39 -92q37 -37 90 -37q51 0 90 39q39 37 39 90t-39 92q-41 37 -92 37t-90 -39q-37 -37 -37 -90z" />
<glyph unicode="&#xc0;" horiz-adv-x="1366" d="M6 0h434v51h-209l127 363h445l121 -363h-211v-51h647v51h-162l-467 1348h-72l-489 -1348h-164v-51zM381 465l207 571l190 -571h-397zM442 1851q0 -35 50 -67l317 -217h102q-41 41 -79.5 82t-79.5 82q-39 41 -78 80.5t-80 78.5q-33 33 -68 33q-33 0 -59 -27 q-25 -23 -25 -45z" />
<glyph unicode="&#xc1;" horiz-adv-x="1366" d="M6 0h434v51h-209l127 363h445l121 -363h-211v-51h647v51h-162l-467 1348h-72l-489 -1348h-164v-51zM381 465l207 571l190 -571h-397zM506 1567h102l318 217q47 32 47 67q0 20 -25 45q-31 27 -57 27q-35 0 -68 -33q-41 -39 -81 -78.5t-80 -80.5l-78 -82z" />
<glyph unicode="&#xc2;" horiz-adv-x="1366" d="M6 0h434v51h-209l127 363h445l121 -363h-211v-51h647v51h-162l-467 1348h-72l-489 -1348h-164v-51zM352 1538h88l238 213l237 -213h89l-256 346h-140zM381 465l207 571l190 -571h-397z" />
<glyph unicode="&#xc3;" horiz-adv-x="1366" d="M6 0h434v51h-209l127 363h445l121 -363h-211v-51h647v51h-162l-467 1348h-72l-489 -1348h-164v-51zM324 1571h69q12 51 45 75.5t66 24.5q49 0 139 -49q90 -47 160 -47q82 0 141 59t86 168h-69q-16 -53 -48 -76q-31 -25 -63 -24q-51 0 -139 49q-90 47 -160 47 q-82 0 -141.5 -59.5t-85.5 -167.5zM381 465l207 571l190 -571h-397z" />
<glyph unicode="&#xc4;" horiz-adv-x="1366" d="M6 0h434v51h-209l127 363h445l121 -363h-211v-51h647v51h-162l-467 1348h-72l-489 -1348h-164v-51zM358 1655q0 -43 33 -76q31 -31 76 -31t78 33q30 31 30 74t-32 76q-31 31 -76 30q-45 0 -78 -32q-31 -31 -31 -74zM381 465l207 571l190 -571h-397zM774 1655 q0 -43 33 -76q31 -31 76 -31t78 33q30 31 30 74t-33 76q-31 31 -75 30q-45 0 -78 -32q-31 -31 -31 -74z" />
<glyph unicode="&#xc5;" horiz-adv-x="1366" d="M6 0h434v51h-209l127 363h445l121 -363h-211v-51h647v51h-162l-467 1348h-72l-489 -1348h-164v-51zM381 465l207 571l190 -571h-397zM469 1677q0 -86 61.5 -147.5t147.5 -61.5t147.5 61.5t61.5 147.5t-61.5 147.5t-147.5 61.5t-147.5 -61.5t-61.5 -147.5zM553 1677 q0 51 37 88t88 37q53 0 90 -37q35 -39 35 -88q0 -53 -37 -90q-35 -35 -88 -35q-51 0 -88 37q-37 33 -37 88z" />
<glyph unicode="&#xc6;" horiz-adv-x="2048" d="M41 0h401v51h-211l230 451h473v-451h-203v-51h1157l19 440h-60q-31 -199 -110 -293q-78 -96 -275 -96h-268v627h49q156 0 207 -82q49 -80 49 -188h57v571h-57q0 -100 -51 -176q-49 -74 -205 -74h-49v588h229q168 0 254 -62q86 -59 133 -256h58l-15 369h-1323v-51 q199 0 205 -66l2 -22q0 -53 -35 -127l-532 -1051h-129v-51zM492 559l401 758h41v-758h-442z" />
<glyph unicode="&#xc7;" horiz-adv-x="1366" d="M106 678q0 -285 193 -496q147 -166 336 -202l-80 -183l33 -8l61 10q37 0 64 -26q25 -25 24 -60q0 -33 -34.5 -55.5t-86.5 -22.5q-47 0 -77 11q-25 8 -45 18l-25 -65q31 -20 68 -29q45 -10 100 -10q121 0 192 43q70 43 70 125q0 68 -47 110q-47 41 -121 41h-18t-19 -2 q-8 -2 -15 -4t-15 -6l43 104q10 -2 16 -2h18q96 0 189 29q86 27 160 86l84 -96h45v418h-60q-59 -225 -166 -306q-109 -80 -229 -80q-180 0 -268 123q-88 121 -88 355v372q0 227 86 355q82 123 258 123q121 0 233 -76q113 -74 156 -289h59v395h-47l-80 -86q-51 43 -133 76 q-78 31 -180 31q-268 0 -463 -213q-190 -213 -191 -508z" />
<glyph unicode="&#xc8;" horiz-adv-x="1366" d="M72 0h1163l18 440h-59q-31 -197 -108.5 -293t-276.5 -96h-274v627h55q156 0 207 -82q49 -80 49 -188h57v571h-57q0 -100 -51 -176q-49 -74 -205 -74h-55v588h235q170 0 256 -62q86 -59 131 -256h57l-14 369h-1128v-51h202v-1266h-202v-51zM449 1851q0 -35 49 -67 l317 -217h103q-41 41 -80 82t-80 82q-39 41 -78 80.5t-80 78.5q-33 33 -68 33q-33 0 -59 -27q-25 -23 -24 -45z" />
<glyph unicode="&#xc9;" horiz-adv-x="1366" d="M72 0h1163l18 440h-59q-31 -197 -108.5 -293t-276.5 -96h-274v627h55q156 0 207 -82q49 -80 49 -188h57v571h-57q0 -100 -51 -176q-49 -74 -205 -74h-55v588h235q170 0 256 -62q86 -59 131 -256h57l-14 369h-1128v-51h202v-1266h-202v-51zM512 1567h102l318 217 q47 32 47 67q0 20 -25 45q-31 27 -57 27q-35 0 -68 -33q-41 -39 -80.5 -78.5l-80.5 -80.5l-78 -82z" />
<glyph unicode="&#xca;" horiz-adv-x="1366" d="M72 0h1163l18 440h-59q-31 -197 -108.5 -293t-276.5 -96h-274v627h55q156 0 207 -82q49 -80 49 -188h57v571h-57q0 -100 -51 -176q-49 -74 -205 -74h-55v588h235q170 0 256 -62q86 -59 131 -256h57l-14 369h-1128v-51h202v-1266h-202v-51zM358 1538h88l238 213l238 -213 h88l-256 346h-140z" />
<glyph unicode="&#xcb;" horiz-adv-x="1366" d="M72 0h1163l18 440h-59q-31 -197 -108.5 -293t-276.5 -96h-274v627h55q156 0 207 -82q49 -80 49 -188h57v571h-57q0 -100 -51 -176q-49 -74 -205 -74h-55v588h235q170 0 256 -62q86 -59 131 -256h57l-14 369h-1128v-51h202v-1266h-202v-51zM365 1655q0 -43 32 -76 q31 -31 76 -31t78 33q31 31 31 74t-33 76q-31 31 -76 30q-45 0 -78 -32q-31 -31 -30 -74zM780 1655q0 -43 33 -76q31 -31 76 -31t78 33q30 31 30 74t-32 76q-31 31 -76 30q-45 0 -78 -32q-31 -31 -31 -74z" />
<glyph unicode="&#xcc;" horiz-adv-x="796" d="M63 0h668v51h-203v1266h203v51h-668v-51h203v-1266h-203v-51zM164 1851q0 -35 49 -67l317 -217h103q-41 41 -80 82t-80 82q-39 41 -78 80.5t-80 78.5q-33 33 -67 33q-33 0 -60 -27q-25 -23 -24 -45z" />
<glyph unicode="&#xcd;" horiz-adv-x="796" d="M63 0h668v51h-203v1266h203v51h-668v-51h203v-1266h-203v-51zM227 1567h103l317 217q47 32 47 67q0 20 -24 45q-31 27 -58 27q-35 0 -67 -33q-41 -39 -81 -78.5t-81 -80.5l-78 -82z" />
<glyph unicode="&#xce;" horiz-adv-x="796" d="M63 0h668v51h-203v1266h203v51h-668v-51h203v-1266h-203v-51zM74 1538h88l237 213l238 -213h88l-256 346h-139z" />
<glyph unicode="&#xcf;" horiz-adv-x="796" d="M63 0h668v51h-203v1266h203v51h-668v-51h203v-1266h-203v-51zM80 1655q0 -43 33 -76q31 -31 75 -31q45 0 78 33q31 31 31 74t-33 76q-31 31 -76 30q-45 0 -77 -32q-31 -31 -31 -74zM496 1655q0 -43 32 -76q31 -31 76 -31t78 33q31 31 31 74t-33 76q-31 31 -76 30 q-45 0 -78 -32q-31 -31 -30 -74z" />
<glyph unicode="&#xd0;" horiz-adv-x="1478" d="M49 741h209v-690h-203v-51h596q377 0 551 199q176 198 176 483q0 299 -186 492q-184 195 -516 194h-621v-45l203 2v-518h-209v-66zM518 51v690h293v66h-293v510h92q307 0 400 -121q88 -123 88 -473q0 -358 -90 -516q-88 -156 -351 -156h-139z" />
<glyph unicode="&#xd1;" horiz-adv-x="1478" d="M39 0h467v51h-201v1227l869 -1305h61v1344h203v51h-465v-51h196v-844l-606 895h-524v-51h201v-1266h-201v-51zM379 1571h70q12 51 44.5 75.5t65.5 24.5q49 0 139 -49q90 -47 160 -47q82 0 141 59t86 168h-69q-16 -53 -47 -76q-31 -25 -64 -24q-51 0 -139 49 q-90 47 -160 47q-82 0 -141 -59.5t-86 -167.5z" />
<glyph unicode="&#xd2;" horiz-adv-x="1478" d="M100 684q0 -289 193 -502q190 -213 444 -213q252 0 447 215q192 211 192 500t-192 502q-195 213 -447 213q-254 0 -446 -215q-190 -213 -191 -500zM401 440v488q0 207 82 313.5t254 106.5q170 0 256 -107q82 -111 82 -313v-488q0 -205 -84 -313q-82 -106 -254 -107 q-172 0 -254 106.5t-82 313.5zM502 1851q0 -35 49 -67l317 -217h103q-41 41 -80 82t-80 82q-39 41 -78 80.5t-80 78.5q-33 33 -67 33q-33 0 -60 -27q-25 -23 -24 -45z" />
<glyph unicode="&#xd3;" horiz-adv-x="1478" d="M100 684q0 -289 193 -502q190 -213 444 -213q252 0 447 215q192 211 192 500t-192 502q-195 213 -447 213q-254 0 -446 -215q-190 -213 -191 -500zM401 440v488q0 207 82 313.5t254 106.5q170 0 256 -107q82 -111 82 -313v-488q0 -205 -84 -313q-82 -106 -254 -107 q-172 0 -254 106.5t-82 313.5zM565 1567h103l317 217q47 32 47 67q0 20 -24 45q-31 27 -58 27q-35 0 -67 -33q-41 -39 -81 -78.5t-81 -80.5l-78 -82z" />
<glyph unicode="&#xd4;" horiz-adv-x="1478" d="M100 684q0 -289 193 -502q190 -213 444 -213q252 0 447 215q192 211 192 500t-192 502q-195 213 -447 213q-254 0 -446 -215q-190 -213 -191 -500zM401 440v488q0 207 82 313.5t254 106.5q170 0 256 -107q82 -111 82 -313v-488q0 -205 -84 -313q-82 -106 -254 -107 q-172 0 -254 106.5t-82 313.5zM412 1538h88l237 213l238 -213h88l-256 346h-139z" />
<glyph unicode="&#xd5;" horiz-adv-x="1478" d="M100 684q0 -289 193 -502q190 -213 444 -213q252 0 447 215q192 211 192 500t-192 502q-195 213 -447 213q-254 0 -446 -215q-190 -213 -191 -500zM383 1571h70q12 51 44.5 75.5t65.5 24.5q49 0 139 -49q90 -47 160 -47q82 0 141.5 59t86.5 168h-70q-16 -53 -47 -76 q-31 -25 -64 -24q-51 0 -139 49q-90 47 -160 47q-82 0 -141 -59.5t-86 -167.5zM401 440v488q0 207 82 313.5t254 106.5q170 0 256 -107q82 -111 82 -313v-488q0 -205 -84 -313q-82 -106 -254 -107q-172 0 -254 106.5t-82 313.5z" />
<glyph unicode="&#xd6;" horiz-adv-x="1478" d="M100 684q0 -289 193 -502q190 -213 444 -213q252 0 447 215q192 211 192 500t-192 502q-195 213 -447 213q-254 0 -446 -215q-190 -213 -191 -500zM401 440v488q0 207 82 313.5t254 106.5q170 0 256 -107q82 -111 82 -313v-488q0 -205 -84 -313q-82 -106 -254 -107 q-172 0 -254 106.5t-82 313.5zM418 1655q0 -43 33 -76q31 -31 75 -31q45 0 78 33q31 31 31 74t-33 76q-31 31 -76 30q-45 0 -77 -32q-31 -31 -31 -74zM834 1655q0 -43 32 -76q31 -31 76 -31t78 33q31 31 31 74t-33 76q-31 31 -76 30q-45 0 -78 -32q-31 -31 -30 -74z" />
<glyph unicode="&#xd7;" d="M59 82l82 -82l373 373l373 -373l82 82l-373 373l373 372l-82 82l-373 -372l-373 372l-82 -82l373 -372z" />
<glyph unicode="&#xd8;" horiz-adv-x="1478" d="M100 684q0 -287 191 -502q6 -6 12 -13t14 -15l-186 -273h102l148 215q156 -127 356 -127q252 0 447 215q192 211 192 500t-192 500q-8 8 -16.5 17t-18.5 20l172 249h-102l-134 -194q-152 123 -348 123q-254 0 -446 -215q-190 -213 -191 -500zM401 440v488q0 207 82 313.5 t254 106.5t254 -107q8 -10 15.5 -23.5t17.5 -29.5l-610 -893q-12 49 -13 145zM446 190l613 897q16 -55 16 -159v-488q0 -205 -84 -313q-82 -106 -254 -107q-172 0 -254 107q-8 10 -17 26.5t-20 36.5z" />
<glyph unicode="&#xd9;" horiz-adv-x="1478" d="M31 1317h202v-842q0 -274 119 -391q119 -115 387 -115q266 0 385 113q119 111 119 364v871h203v51h-469v-51h203v-905q0 -182 -93 -281q-90 -96 -264 -96q-170 0 -250 86q-80 82 -79 262v934h202v51h-665v-51zM504 1851q0 -35 49 -67l317 -217h103q-41 41 -80 82t-80 82 q-39 41 -78 80.5t-80 78.5q-33 33 -67 33q-33 0 -60 -27q-25 -23 -24 -45z" />
<glyph unicode="&#xda;" horiz-adv-x="1478" d="M31 1317h202v-842q0 -274 119 -391q119 -115 387 -115q266 0 385 113q119 111 119 364v871h203v51h-469v-51h203v-905q0 -182 -93 -281q-90 -96 -264 -96q-170 0 -250 86q-80 82 -79 262v934h202v51h-665v-51zM567 1567h103l317 217q47 32 47 67q0 20 -24 45 q-31 27 -58 27q-35 0 -67 -33q-41 -39 -81 -78.5t-81 -80.5l-78 -82z" />
<glyph unicode="&#xdb;" horiz-adv-x="1478" d="M31 1317h202v-842q0 -274 119 -391q119 -115 387 -115q266 0 385 113q119 111 119 364v871h203v51h-469v-51h203v-905q0 -182 -93 -281q-90 -96 -264 -96q-170 0 -250 86q-80 82 -79 262v934h202v51h-665v-51zM414 1538h88l237 213l238 -213h88l-256 346h-139z" />
<glyph unicode="&#xdc;" horiz-adv-x="1478" d="M31 1317h202v-842q0 -274 119 -391q119 -115 387 -115q266 0 385 113q119 111 119 364v871h203v51h-469v-51h203v-905q0 -182 -93 -281q-90 -96 -264 -96q-170 0 -250 86q-80 82 -79 262v934h202v51h-665v-51zM420 1655q0 -43 33 -76q31 -31 75 -31q45 0 78 33 q31 31 31 74t-33 76q-31 31 -76 30q-45 0 -77 -32q-31 -31 -31 -74zM836 1655q0 -43 32 -76q31 -31 76 -31t78 33q31 31 31 74t-33 76q-31 31 -76 30q-45 0 -78 -32q-31 -31 -30 -74z" />
<glyph unicode="&#xdd;" horiz-adv-x="1366" d="M2 1317h150l430 -696v-570h-217v-51h704v51h-227v615l356 651h168v51h-442v-51h213l-330 -588l-348 588h209v51h-666v-51zM592 1567h102l318 217q47 32 47 67q0 20 -25 45q-31 27 -57 27q-35 0 -68 -33q-41 -39 -81 -78.5t-80 -80.5l-78 -82z" />
<glyph unicode="&#xde;" horiz-adv-x="1366" d="M74 1317h215v-1266h-203v-51h694v51h-231v346h231q248 0 394 101q145 98 145 276q0 188 -135 279q-133 90 -387 90h-248v174h219v51h-694v-51zM549 451v641h252q123 0 176 -78t53 -234q0 -166 -57 -248q-55 -82 -180 -81h-244z" />
<glyph unicode="&#xdf;" horiz-adv-x="1138" d="M51 0h359v1157q0 123 51 162q55 39 117 39q98 0 139 -62q39 -61 39 -231q0 -162 -39 -219q-37 -55 -135 -55q-8 0 -17.5 -1.5t-19.5 -3.5q-20 -2 -21 -18q0 -14 24.5 -20.5t45.5 -6.5q135 0 174 -94q41 -98 41 -276q0 -162 -21 -250q-23 -90 -90 -90q-33 0 -49 8 q-16 10 -16 20q0 14 29 39q29 23 28 68q0 90 -86 90h-16q-51 0 -77 -30.5t-26 -86.5q0 -63 54 -110q51 -43 153 -43q166 0 264 118q99 117 99 275q0 160 -103 266q-100 104 -250 125q150 39 216 123q63 86 63 194q0 131 -113 224q-117 88 -284 88q-170 0 -279 -90 q-109 -86 -108 -277v-981h-146v-51z" />
<glyph unicode="&#xe0;" d="M102 229q0 -113 56 -188q55 -74 155 -74q76 0 156 35q74 33 145 111q6 -57 48 -103q37 -41 114 -41q68 0 111 31q43 33 82 78l-25 28q-4 -4 -13 -11t-20 -17q-23 -18 -39 -19q-23 0 -36 13q-12 8 -13 28v734q0 113 -94 182q-98 70 -237 69q-150 0 -242 -61 q-92 -63 -90 -152q2 -92 100 -92q96 0 105 88q0 43 -19 78q-16 33 -16 37q0 18 47 41q43 20 100 20q47 0 94 -36q43 -37 43 -90v-334h-53q-25 0 -51.5 -2t-51 -4.5t-46.5 -6.5q-137 -25 -224 -112q-86 -86 -86 -230zM268 1409q0 -35 49 -68l318 -217h102q-41 41 -80 82 t-79 82q-39 41 -78 81t-80 79q-35 33 -68 33t-59 -27q-25 -23 -25 -45zM317 293q0 100 39 158q37 57 107 75q31 6 53 6q18 0 35 -6q33 -14 63 -37v-127q0 -115 -47 -204q-45 -88 -121 -88q-68 0 -98.5 63.5t-30.5 159.5z" />
<glyph unicode="&#xe1;" d="M102 229q0 -113 56 -188q55 -74 155 -74q76 0 156 35q74 33 145 111q6 -57 48 -103q37 -41 114 -41q68 0 111 31q43 33 82 78l-25 28q-4 -4 -13 -11t-20 -17q-23 -18 -39 -19q-23 0 -36 13q-12 8 -13 28v734q0 113 -94 182q-98 70 -237 69q-150 0 -242 -61 q-92 -63 -90 -152q2 -92 100 -92q96 0 105 88q0 43 -19 78q-16 33 -16 37q0 18 47 41q43 20 100 20q47 0 94 -36q43 -37 43 -90v-334h-53q-25 0 -51.5 -2t-51 -4.5t-46.5 -6.5q-137 -25 -224 -112q-86 -86 -86 -230zM317 293q0 100 39 158q37 57 107 75q31 6 53 6 q18 0 35 -6q33 -14 63 -37v-127q0 -115 -47 -204q-45 -88 -121 -88q-68 0 -98.5 63.5t-30.5 159.5zM350 1116h103l317 217q47 33 47 68q0 23 -24 45q-27 27 -58 27q-35 0 -67 -33q-41 -39 -81 -78t-81 -82l-78 -82z" />
<glyph unicode="&#xe2;" d="M102 229q0 -113 56 -188q55 -74 155 -74q76 0 156 35q74 33 145 111q6 -57 48 -103q37 -41 114 -41q68 0 111 31q43 33 82 78l-25 28q-4 -4 -13 -11t-20 -17q-23 -18 -39 -19q-23 0 -36 13q-12 8 -13 28v734q0 113 -94 182q-98 70 -237 69q-150 0 -242 -61 q-92 -63 -90 -152q2 -92 100 -92q96 0 105 88q0 43 -19 78q-16 33 -16 37q0 18 47 41q43 20 100 20q47 0 94 -36q43 -37 43 -90v-334h-53q-25 0 -51.5 -2t-51 -4.5t-46.5 -6.5q-137 -25 -224 -112q-86 -86 -86 -230zM184 1151h88l238 213l238 -213h88l-256 346h-140z M317 293q0 100 39 158q37 57 107 75q31 6 53 6q18 0 35 -6q33 -14 63 -37v-127q0 -115 -47 -204q-45 -88 -121 -88q-68 0 -98.5 63.5t-30.5 159.5z" />
<glyph unicode="&#xe3;" d="M102 229q0 -113 56 -188q55 -74 155 -74q76 0 156 35q74 33 145 111q6 -57 48 -103q37 -41 114 -41q68 0 111 31q43 33 82 78l-25 28q-4 -4 -13 -11t-20 -17q-23 -18 -39 -19q-23 0 -36 13q-12 8 -13 28v734q0 113 -94 182q-98 70 -237 69q-150 0 -242 -61 q-92 -63 -90 -152q2 -92 100 -92q96 0 105 88q0 43 -19 78q-16 33 -16 37q0 18 47 41q43 20 100 20q47 0 94 -36q43 -37 43 -90v-334h-53q-25 0 -51.5 -2t-51 -4.5t-46.5 -6.5q-137 -25 -224 -112q-86 -86 -86 -230zM156 1116h69q12 53 45 76q31 25 66 25q49 0 139 -50 q82 -47 160 -47q84 0 141 58q55 57 86 170h-69q-16 -53 -48 -76q-31 -25 -63 -25q-57 0 -139 47q-90 49 -160 49q-86 0 -141 -59q-59 -59 -86 -168zM317 293q0 100 39 158q37 57 107 75q31 6 53 6q18 0 35 -6q33 -14 63 -37v-127q0 -115 -47 -204q-45 -88 -121 -88 q-68 0 -98.5 63.5t-30.5 159.5z" />
<glyph unicode="&#xe4;" d="M102 229q0 -113 56 -188q55 -74 155 -74q76 0 156 35q74 33 145 111q6 -57 48 -103q37 -41 114 -41q68 0 111 31q43 33 82 78l-25 28q-4 -4 -13 -11t-20 -17q-23 -18 -39 -19q-23 0 -36 13q-12 8 -13 28v734q0 113 -94 182q-98 70 -237 69q-150 0 -242 -61 q-92 -63 -90 -152q2 -92 100 -92q96 0 105 88q0 43 -19 78q-16 33 -16 37q0 18 47 41q43 20 100 20q47 0 94 -36q43 -37 43 -90v-334h-53q-25 0 -51.5 -2t-51 -4.5t-46.5 -6.5q-137 -25 -224 -112q-86 -86 -86 -230zM184 1257q0 -43 31 -75q31 -31 78 -31q45 0 76 31 q32 36 32 75q0 41 -32 74q-31 33 -76 33q-47 0 -78 -33q-31 -31 -31 -74zM317 293q0 100 39 158q37 57 107 75q31 6 53 6q18 0 35 -6q33 -14 63 -37v-127q0 -115 -47 -204q-45 -88 -121 -88q-68 0 -98.5 63.5t-30.5 159.5zM600 1257q0 -43 31 -75q31 -31 78 -31q45 0 75 31 q33 36 33 75q0 41 -33 74q-31 33 -75 33q-47 0 -78 -33q-31 -31 -31 -74z" />
<glyph unicode="&#xe5;" d="M102 229q0 -113 56 -188q55 -74 155 -74q76 0 156 35q74 33 145 111q6 -57 48 -103q37 -41 114 -41q68 0 111 31q43 33 82 78l-25 28q-4 -4 -13 -11t-20 -17q-23 -18 -39 -19q-23 0 -36 13q-12 8 -13 28v734q0 113 -94 182q-98 70 -237 69q-150 0 -242 -61 q-92 -63 -90 -152q2 -92 100 -92q96 0 105 88q0 43 -19 78q-16 33 -16 37q0 18 47 41q43 20 100 20q47 0 94 -36q43 -37 43 -90v-334h-53q-25 0 -51.5 -2t-51 -4.5t-46.5 -6.5q-137 -25 -224 -112q-86 -86 -86 -230zM276 1309q0 -86 61.5 -147.5t147.5 -61.5t147.5 61.5 t61.5 147.5t-61.5 147.5t-147.5 61.5t-147.5 -61.5t-61.5 -147.5zM317 293q0 100 39 158q37 57 107 75q31 6 53 6q18 0 35 -6q33 -14 63 -37v-127q0 -115 -47 -204q-45 -88 -121 -88q-68 0 -98.5 63.5t-30.5 159.5zM360 1309q0 51 37 88t88 37t88 -37t37 -88q0 -55 -37 -88 q-37 -37 -88 -37t-88 37q-37 33 -37 88z" />
<glyph unicode="&#xe6;" horiz-adv-x="1366" d="M43 229q0 -111 72 -188q70 -74 196 -74q84 0 174 56q88 55 115 129q45 -98 121 -142q76 -41 215 -41q133 0 240 103q100 104 143 315h-51q-29 -125 -105 -250q-78 -127 -205 -127q-102 0 -145 98.5t-43 278.5v197h500q20 0 33 14q10 16 10 39q0 184 -103 317 q-100 131 -241 131q-76 0 -154 -22q-68 -18 -127 -68q-23 37 -96 66q-72 25 -160 24q-150 0 -242 -61q-92 -63 -90 -152q2 -92 101 -92q96 0 104 88q0 43 -18 78q-16 33 -17 37q0 18 47 41q43 20 103 20q49 0 96 -36q43 -37 43 -90v-334h-53q-25 0 -51.5 -2t-51 -4.5 t-47.5 -6.5q-139 -25 -227 -112q-86 -86 -86 -230zM258 293q0 100 39 157.5t109 75.5q31 6 53 6q20 0 37 -6q33 -14 63 -37v-127q0 -115 -47 -204q-45 -88 -121 -88q-72 0 -102.5 63.5t-30.5 159.5zM770 635v37q0 186 33 278q31 94 127 94q74 0 114 -71q18 -35 29.5 -84 t11.5 -113v-141h-315z" />
<glyph unicode="&#xe7;" horiz-adv-x="909" d="M80 526q0 -233 113 -395q92 -131 217 -156l-78 -178l33 -8l61 10q37 0 63 -26q25 -25 25 -60q0 -33 -35 -55.5t-86 -22.5q-47 0 -78 11q-25 8 -45 18l-24 -65q31 -20 67 -29q45 -10 101 -10q121 0 192 43q70 43 70 125q0 68 -47 110q-47 41 -121 41h-19q-8 0 -18 -2 q-8 -2 -15 -4t-16 -6l43 102q125 2 219 97q96 97 129 296l-51 -2q-12 -111 -86 -229q-72 -121 -188 -121q-106 0 -148 96q-39 92 -39 281v277q0 174 43 278q41 102 130 102q51 0 100 -18q49 -14 55 -47q0 -23 -33 -49q-33 -25 -32 -74q12 -96 114 -96q104 0 115 110 q0 104 -96.5 159.5t-208.5 55.5q-186 0 -305 -159q-121 -162 -121 -400z" />
<glyph unicode="&#xe8;" horiz-adv-x="909" d="M66 508q0 -215 118.5 -377t272.5 -162q135 0 241 103q103 102 146 315h-51q-10 -61 -36 -123.5t-65 -126.5q-78 -127 -203 -127q-100 0 -139 99q-41 100 -41 278v197h510q14 0 15 14q2 8 3 17.5t1 21.5q0 186 -107 317q-104 131 -254 131q-170 0 -290.5 -170t-120.5 -407 zM211 1409q0 -35 49 -68l318 -217h102q-82 80 -158 164q-80 86 -160 160q-33 33 -67 33q-33 0 -59 -27q-25 -23 -25 -45zM309 635v37q0 182 31 278q27 94 123 94q74 0 110 -71q39 -76 37 -197l-4 -141h-297z" />
<glyph unicode="&#xe9;" horiz-adv-x="909" d="M66 508q0 -215 118.5 -377t272.5 -162q135 0 241 103q103 102 146 315h-51q-10 -61 -36 -123.5t-65 -126.5q-78 -127 -203 -127q-100 0 -139 99q-41 100 -41 278v197h510q14 0 15 14q2 8 3 17.5t1 21.5q0 186 -107 317q-104 131 -254 131q-170 0 -290.5 -170t-120.5 -407 zM244 1163h102l318 217q47 31 47 68q0 16 -25 45q-31 27 -57 27q-31 0 -68 -33q-41 -39 -81 -79l-81 -81q-41 -43 -78.5 -83t-76.5 -81zM309 635v37q0 182 31 278q27 94 123 94q74 0 110 -71q39 -76 37 -197l-4 -141h-297z" />
<glyph unicode="&#xea;" horiz-adv-x="909" d="M66 508q0 -215 118.5 -377t272.5 -162q135 0 241 103q103 102 146 315h-51q-10 -61 -36 -123.5t-65 -126.5q-78 -127 -203 -127q-100 0 -139 99q-41 100 -41 278v197h510q14 0 15 14q2 8 3 17.5t1 21.5q0 186 -107 317q-104 131 -254 131q-170 0 -290.5 -170t-120.5 -407 zM133 1081h88l238 213l237 -213h88l-256 346h-139zM309 635v37q0 182 31 278q27 94 123 94q74 0 110 -71q39 -76 37 -197l-4 -141h-297z" />
<glyph unicode="&#xeb;" horiz-adv-x="909" d="M66 508q0 -215 118.5 -377t272.5 -162q135 0 241 103q103 102 146 315h-51q-10 -61 -36 -123.5t-65 -126.5q-78 -127 -203 -127q-100 0 -139 99q-41 100 -41 278v197h510q14 0 15 14q2 8 3 17.5t1 21.5q0 186 -107 317q-104 131 -254 131q-170 0 -290.5 -170t-120.5 -407 zM145 1225q0 -41 33 -74q31 -33 76 -33q47 0 78 33q30 31 30 74q0 41 -30 75q-31 31 -78 31q-45 0 -76 -31q-33 -37 -33 -75zM309 635v37q0 182 31 278q27 94 123 94q74 0 110 -71q39 -76 37 -197l-4 -141h-297zM561 1225q0 -41 33 -74q31 -33 76 -33q47 0 78 33 q30 31 30 74q0 41 -30 75q-31 31 -78 31q-45 0 -76 -31q-33 -37 -33 -75z" />
<glyph unicode="&#xec;" horiz-adv-x="569" d="M-37 1427q0 -31 49 -67l318 -217h102q-41 41 -79 82t-79 82q-80 86 -159 159q-33 33 -68 33q-31 0 -59 -26q-25 -23 -25 -46zM20 0h525v51h-150v1032l-368 -10v-51h147v-971h-154v-51z" />
<glyph unicode="&#xed;" horiz-adv-x="569" d="M20 0h525v51h-150v1032l-368 -10v-51h147v-971h-154v-51zM129 1137h102l318 217q47 32 47 67q0 23 -25 45q-27 27 -57 27q-35 0 -68 -33q-41 -39 -80.5 -78t-80.5 -82q-39 -41 -78 -81.5t-78 -81.5z" />
<glyph unicode="&#xee;" horiz-adv-x="569" d="M-74 1120h88l238 213l237 -213h89l-256 346h-140zM20 0h525v51h-150v1032l-368 -10v-51h147v-971h-154v-51z" />
<glyph unicode="&#xef;" horiz-adv-x="569" d="M-31 1243q0 -43 33 -74q31 -33 76 -32q45 0 78 32q30 31 30 74q0 41 -30 76q-35 31 -78 31q-45 0 -76 -31q-33 -33 -33 -76zM20 0h525v51h-150v1032l-368 -10v-51h147v-971h-154v-51zM385 1243q0 -43 33 -74q31 -33 76 -32q45 0 77 32q31 31 31 74q0 41 -31 76 q-35 31 -77 31q-45 0 -76 -31q-33 -33 -33 -76z" />
<glyph unicode="&#xf0;" d="M82 520q0 -227 127 -391q125 -162 303 -162q203 0 317 197q113 192 113 516q0 307 -174 487q-20 20 -48 44t-65 51l170 100l-41 47l-190 -111q-106 68 -318 103l-24 -39q221 -37 295 -92l-275 -160l39 -53l289 170l4 -4q86 -96 86 -205q-41 31 -86 49q-43 18 -92 18 q-180 0 -305 -167q-125 -172 -125 -398zM328 395v250q0 197 37 299q37 100 147 100q111 0 147.5 -102t36.5 -297v-250q0 -184 -41 -289q-41 -98 -143 -98q-106 0 -145 98q-39 96 -39 289z" />
<glyph unicode="&#xf1;" horiz-adv-x="1138" d="M47 0h485v51h-129v475q0 233 72 361q70 125 158 125q70 0 92 -86q10 -41 15 -102.5t5 -141.5v-631h-129v-51h476v51h-131v623q0 205 -58 307q-59 104 -194 104q-88 0 -170 -45q-82 -43 -136 -151v194l-356 -10v-51h139v-971h-139v-51zM195 1167h69q12 49 45 76 q33 25 66 25q53 0 139 -49q86 -47 160 -48q86 0 141 58q57 57 86 170h-70q-12 -49 -45 -76q-35 -25 -65 -25q-53 0 -139 48q-86 49 -160 49q-82 0 -141 -60q-55 -59 -86 -168z" />
<glyph unicode="&#xf2;" d="M80 526q0 -223 131 -391q129 -166 299 -166q172 0 303 168q129 166 129 389q0 225 -131 394q-129 166 -301 165q-170 0 -301 -167q-129 -166 -129 -392zM258 1415q0 -35 49 -67l318 -218h102q-82 80 -158 164q-80 82 -159 160q-33 33 -68 33q-31 0 -59 -27 q-25 -23 -25 -45zM326 393v269q0 190 39 286q41 96 145 96q106 0 147 -98q39 -92 39 -284v-269q0 -190 -39 -287q-41 -96 -147 -96t-145 99q-39 92 -39 284z" />
<glyph unicode="&#xf3;" d="M80 526q0 -223 131 -391q129 -166 299 -166q172 0 303 168q129 166 129 389q0 225 -131 394q-129 166 -301 165q-170 0 -301 -167q-129 -166 -129 -392zM326 393v269q0 190 39 286q41 96 145 96q106 0 147 -98q39 -92 39 -284v-269q0 -190 -39 -287q-41 -96 -147 -96 t-145 99q-39 92 -39 284zM330 1157h102l318 217q47 29 47 68q0 20 -25 45q-31 27 -57 26q-31 0 -68 -32q-84 -78 -160 -160q-41 -43 -79.5 -83t-77.5 -81z" />
<glyph unicode="&#xf4;" d="M80 526q0 -223 131 -391q129 -166 299 -166q172 0 303 168q129 166 129 389q0 225 -131 394q-129 166 -301 165q-170 0 -301 -167q-129 -166 -129 -392zM176 1133h88l238 213l237 -213h88l-256 346h-139zM326 393v269q0 190 39 286q41 96 145 96q106 0 147 -98 q39 -92 39 -284v-269q0 -190 -39 -287q-41 -96 -147 -96t-145 99q-39 92 -39 284z" />
<glyph unicode="&#xf5;" d="M80 526q0 -223 131 -391q129 -166 299 -166q172 0 303 168q129 166 129 389q0 225 -131 394q-129 166 -301 165q-170 0 -301 -167q-129 -166 -129 -392zM172 1190h70q12 51 44.5 75.5t65.5 24.5q49 0 140 -47q88 -49 159 -49q82 0 141.5 59t86.5 168h-70q-16 -53 -47 -75 q-31 -25 -64 -25q-51 0 -139 49q-90 47 -160 47q-84 0 -141 -57t-86 -170zM326 393v269q0 190 39 286q41 96 145 96q106 0 147 -98q39 -92 39 -284v-269q0 -190 -39 -287q-41 -96 -147 -96t-145 99q-39 92 -39 284z" />
<glyph unicode="&#xf6;" d="M80 526q0 -223 131 -391q129 -166 299 -166q172 0 303 168q129 166 129 389q0 225 -131 394q-129 166 -301 165q-170 0 -301 -167q-129 -166 -129 -392zM188 1274q0 -43 33 -74q33 -33 76 -33q41 0 78 33q31 31 31 74q0 45 -31 76q-35 31 -78 30q-45 0 -76 -30 q-33 -31 -33 -76zM326 393v269q0 190 39 286q41 96 145 96q106 0 147 -98q39 -92 39 -284v-269q0 -190 -39 -287q-41 -96 -147 -96t-145 99q-39 92 -39 284zM604 1274q0 -43 33 -74q33 -33 76 -33q41 0 78 33q30 31 30 74q0 45 -30 76q-35 31 -78 30q-45 0 -76 -30 q-33 -31 -33 -76z" />
<glyph unicode="&#xf7;" d="M61 399h908v111h-908v-111zM381 129q0 -53 39 -92q37 -37 90 -37t92 39q37 37 37 90t-39 92q-37 37 -90 37t-92 -39q-37 -37 -37 -90zM381 776q0 -53 39 -92q37 -37 90 -37t92 39q37 37 37 90t-39 92q-37 37 -90 37t-92 -39q-37 -37 -37 -90z" />
<glyph unicode="&#xf8;" d="M80 526q0 -223 129 -391q8 -10 18.5 -21.5t20.5 -21.5l-142 -289l91 2l112 232q88 -68 201 -68q172 0 303 168q129 166 129 389q0 227 -131 392q-10 12 -21.5 24t-23.5 27l131 268h-90l-105 -213q-84 61 -192 61q-170 0 -301 -167q-129 -166 -129 -392zM326 393v269 q0 190 39 286q41 96 145 96q106 0 147 -98q1 0 5 -8l-330 -674q-6 43 -6 129zM356 131l332 680q8 -47 8 -149v-269q0 -190 -39 -287q-41 -96 -147 -96q-104 0 -145 96q-2 4 -4.5 10.5t-4.5 14.5z" />
<glyph unicode="&#xf9;" horiz-adv-x="1138" d="M45 1022h133v-725q0 -150 66 -240q61 -88 182 -88q88 0 166 47q76 43 141 152v-184q35 6 63.5 9t49 5t82.5 2h166v51h-142v1030l-374 -8v-51h153v-571q0 -170 -72 -295q-72 -121 -170 -121q-47 0 -69 53q-20 49 -21 145v848l-354 -8v-51zM315 1419q0 -31 50 -67l317 -217 h102q-41 41 -79.5 81.5t-79.5 81.5q-39 43 -78 83t-80 77q-33 33 -68 33q-33 0 -59 -27q-25 -23 -25 -45z" />
<glyph unicode="&#xfa;" horiz-adv-x="1138" d="M45 1022h133v-725q0 -150 66 -240q61 -88 182 -88q88 0 166 47q76 43 141 152v-184q35 6 63.5 9t49 5t82.5 2h166v51h-142v1030l-374 -8v-51h153v-571q0 -170 -72 -295q-72 -121 -170 -121q-47 0 -69 53q-20 49 -21 145v848l-354 -8v-51zM403 1137h103l317 217 q47 32 47 67q0 23 -24 45q-27 27 -58 27q-35 0 -67 -33q-41 -37 -81 -77t-81 -83q-39 -41 -78 -81.5t-78 -81.5z" />
<glyph unicode="&#xfb;" horiz-adv-x="1138" d="M45 1022h133v-725q0 -150 66 -240q61 -88 182 -88q88 0 166 47q76 43 141 152v-184q35 6 63.5 9t49 5t82.5 2h166v51h-142v1030l-374 -8v-51h153v-571q0 -170 -72 -295q-72 -121 -170 -121q-47 0 -69 53q-20 49 -21 145v848l-354 -8v-51zM244 1112h88l237 213l238 -213 h88l-256 346h-139z" />
<glyph unicode="&#xfc;" horiz-adv-x="1138" d="M45 1022h133v-725q0 -150 66 -240q61 -88 182 -88q88 0 166 47q76 43 141 152v-184q35 6 63.5 9t49 5t82.5 2h166v51h-142v1030l-374 -8v-51h153v-571q0 -170 -72 -295q-72 -121 -170 -121q-47 0 -69 53q-20 49 -21 145v848l-354 -8v-51zM256 1300q0 -43 31 -73 q33 -33 78 -33t75 33q33 30 33 73t-33 76q-31 31 -75 31q-45 0 -78 -31q-31 -35 -31 -76zM672 1300q0 -43 30 -73q33 -33 78 -33t76 33q33 30 33 73t-33 76q-31 31 -76 31t-78 -31q-31 -35 -30 -76z" />
<glyph unicode="&#xfd;" d="M39 1022h100l361 -967l-47 -186q-35 -78 -55.5 -123t-28.5 -59q-16 -25 -25 -25q-8 0 -14 8q-2 6 -11 15q-37 45 -86 45q-8 0 -16 -1t-18 -3q-74 -18 -74 -99q0 -51 37 -78q39 -29 76 -28q76 0 141 84q33 41 61.5 91t46.5 111l373 1215h115v51h-324v-51h148l-195 -709 l-227 709h37l-13 -12h103l317 217q47 33 47 67q0 20 -24 45q-31 27 -58 27q-35 0 -67 -33q-41 -39 -81 -79t-81 -80q-23 -27 -47.5 -51.5t-46.5 -49.5h-424v-51z" />
<glyph unicode="&#xfe;" horiz-adv-x="1138" d="M35 1317h147v-1745h-145v-51h508v51h-142v549q41 -84 109 -119q63 -33 133 -33q160 0 281 166q116 162 116 391q0 231 -114 396q-111 164 -273 163q-68 0 -133 -41q-63 -39 -119 -129v484q-59 -10 -105 -16.5t-79 -10.5q-33 -2 -79 -3t-105 -1v-51zM403 414v262 q0 70 21.5 132t62.5 122q78 115 162 114q72 0 113 -83q39 -80 39 -218v-432q0 -129 -41 -217q-37 -84 -107 -84q-111 0 -180 117q-70 113 -70 287z" />
<glyph unicode="&#xff;" d="M39 1022h100l361 -967l-47 -186q-35 -78 -55.5 -123t-28.5 -59q-16 -25 -25 -25q-8 0 -14 8q-2 6 -11 15q-37 45 -86 45q-8 0 -16 -1t-18 -3q-74 -18 -74 -99q0 -51 37 -78q39 -29 76 -28q76 0 141 84q33 41 61.5 91t46.5 111l373 1215h115v51h-90q2 8 2 25q0 43 -33 76 q-31 31 -76 30q-45 0 -78 -33q-31 -31 -30 -73q0 -16 2 -25h-21v-51h51q31 -31 76 -31h13l-187 -678l-219 680q31 6 53 29h70v51h-39q2 8 2 25q0 43 -33 76q-31 31 -76 30q-45 0 -77 -33q-31 -31 -31 -73q0 -16 2 -25h-217v-51z" />
<glyph unicode="&#x152;" horiz-adv-x="2048" d="M35 698q0 -301 182 -501q178 -197 461 -197h1288l19 440h-60q-31 -199 -110 -293q-78 -96 -275 -96h-268v627h49q156 0 207 -82q49 -80 49 -188h57v571h-57q0 -100 -51 -176q-49 -74 -205 -74h-49v588h229q168 0 254 -62q86 -59 133 -256h58l-15 369h-1253 q-264 0 -455 -197q-188 -199 -188 -473zM338 571v246q0 250 96 377q92 123 305 123q143 0 207 -70q66 -72 66 -241v-687q0 -141 -74 -204q-72 -63 -209 -64q-209 0 -301 127q-90 127 -90 393z" />
<glyph unicode="&#x153;" horiz-adv-x="1478" d="M53 526q0 -221 127 -391q123 -166 291 -166q113 0 180 33q72 31 117 82q23 -27 51.5 -47.5t63.5 -36.5q70 -31 164 -31q133 0 239 103q103 102 144 315h-52q-25 -125 -104 -250q-78 -127 -207 -127q-104 0 -147 98.5t-43 278.5v197h497q25 0 37 14t12 39q0 186 -106 317 q-104 131 -250 131q-96 0 -176 -34q-76 -31 -125 -86q-45 51 -125 88q-82 33 -170 32q-168 0 -293 -167.5t-125 -391.5zM299 393v269q0 190 39 286q41 96 145 96t146 -98q39 -92 39 -284v-269q0 -190 -39 -287q-41 -96 -146 -96q-106 0 -145 99q-39 92 -39 284zM877 635v37 q0 186 32 278q33 94 129 94q76 0 117 -71.5t41 -196.5q0 -49 -6 -88q-6 -37 -19 -53h-294z" />
<glyph unicode="&#x178;" horiz-adv-x="1366" d="M2 1317h150l430 -696v-570h-217v-51h704v51h-227v615l356 651h168v51h-442v-51h213l-330 -588l-348 588h209v51h-666v-51zM444 1655q0 -43 33 -76q31 -31 76 -31t78 33q31 31 31 74t-33 76q-31 31 -76 30q-45 0 -78 -32q-31 -31 -31 -74zM860 1655q0 -43 33 -76 q31 -31 76 -31t78 33q30 31 30 74t-33 76q-31 31 -75 30q-45 0 -78 -32q-31 -31 -31 -74z" />
<glyph unicode="&#x2c6;" horiz-adv-x="681" d="M16 981h88l238 213l238 -213h88l-256 346h-140z" />
<glyph unicode="&#x2dc;" horiz-adv-x="681" d="M-12 1014h69q12 51 45 75.5t66 24.5q49 0 139 -49q90 -47 160 -47q82 0 141 59t86 168h-69q-16 -53 -47 -76q-31 -25 -64 -24q-51 0 -139 49q-90 47 -160 47q-82 0 -141.5 -59.5t-85.5 -167.5z" />
<glyph unicode="&#x2000;" horiz-adv-x="961" />
<glyph unicode="&#x2001;" horiz-adv-x="1923" />
<glyph unicode="&#x2002;" horiz-adv-x="961" />
<glyph unicode="&#x2003;" horiz-adv-x="1923" />
<glyph unicode="&#x2004;" horiz-adv-x="641" />
<glyph unicode="&#x2005;" horiz-adv-x="480" />
<glyph unicode="&#x2006;" horiz-adv-x="320" />
<glyph unicode="&#x2007;" horiz-adv-x="320" />
<glyph unicode="&#x2008;" horiz-adv-x="240" />
<glyph unicode="&#x2009;" horiz-adv-x="384" />
<glyph unicode="&#x200a;" horiz-adv-x="106" />
<glyph unicode="&#x2010;" horiz-adv-x="681" d="M66 590h555v108h-555v-108z" />
<glyph unicode="&#x2011;" horiz-adv-x="681" d="M66 590h555v108h-555v-108z" />
<glyph unicode="&#x2012;" horiz-adv-x="681" d="M66 590h555v108h-555v-108z" />
<glyph unicode="&#x2013;" d="M0 358h1024v109h-1024v-109z" />
<glyph unicode="&#x2014;" horiz-adv-x="2048" d="M0 358h2048v109h-2048v-109z" />
<glyph unicode="&#x2018;" horiz-adv-x="681" d="M166 1071q0 -121 57.5 -178t143.5 -57q57 0 108 34q47 36 47 97q0 123 -100 131l-25 2q-78 6 -98 -60q-16 -47 -43 -47q-29 0 -29 84q0 74 60 158q29 41 60.5 73.5t64.5 55.5q12 8 12 16t-8 15q-10 10 -21 6q-10 0 -18 -6q-88 -49 -149.5 -147.5t-61.5 -176.5z" />
<glyph unicode="&#x2019;" horiz-adv-x="681" d="M168 1268q0 -125 98 -133h21q80 0 98 59q12 47 41 47q31 0 31 -84q0 -74 -60 -158q-29 -41 -60.5 -73.5t-64.5 -55.5q-12 -10 -12 -16q0 -8 8 -14q10 -10 21 -6q8 0 18 6q88 49 149.5 147t61.5 176q0 121 -57.5 178.5t-143.5 57.5q-57 0 -104 -35q-45 -33 -45 -96z" />
<glyph unicode="&#x201a;" horiz-adv-x="681" d="M168 104q0 -125 98 -133h21q80 0 98 60q12 47 41 47q31 0 31 -84q0 -74 -60 -158q-29 -41 -60.5 -73.5t-64.5 -55.5q-12 -10 -12 -16q0 -8 8 -15q10 -10 21 -6q8 0 18 6q88 49 149.5 147.5t61.5 176.5q0 121 -57.5 178.5t-143.5 57.5q-57 0 -104 -35q-45 -33 -45 -97z " />
<glyph unicode="&#x201c;" d="M84 1071q0 -121 57.5 -178t143.5 -57q57 0 108 34q47 36 47 97q0 123 -100 131l-25 2q-78 6 -98 -60q-16 -47 -43 -47q-29 0 -29 84q0 74 60 158q29 41 60.5 73.5t64.5 55.5q12 8 12 16t-8 15q-10 10 -21 6q-10 0 -18 -6q-88 -49 -149.5 -147.5t-61.5 -176.5zM596 1071 q0 -121 57.5 -178t143.5 -57q57 0 108 34q47 36 47 97q0 123 -100 131l-25 2q-78 6 -98 -60q-16 -47 -43 -47q-29 0 -29 84q0 74 60 158q29 41 60.5 73.5t64.5 55.5q12 8 12 16t-8 15q-10 10 -21 6q-10 0 -18 -6q-88 -49 -149.5 -147.5t-61.5 -176.5z" />
<glyph unicode="&#x201d;" d="M90 1268q0 -125 98 -133h21q80 0 98 59q12 47 41 47q31 0 31 -84q0 -74 -60 -158q-29 -41 -60.5 -73.5t-63.5 -55.5q-12 -10 -13 -16q0 -8 8 -14q10 -10 21 -6q8 0 18 6q88 49 149.5 147t61.5 176q0 121 -57 178.5t-143 57.5q-57 0 -105 -35q-45 -33 -45 -96zM602 1268 q0 -125 98 -133h21q80 0 98 59q12 47 41 47q31 0 31 -84q0 -74 -60 -158q-29 -41 -60.5 -73.5t-63.5 -55.5q-12 -10 -13 -16q0 -8 8 -14q10 -10 21 -6q8 0 18 6q88 49 149.5 147t61.5 176q0 121 -57 178.5t-143 57.5q-57 0 -105 -35q-45 -33 -45 -96z" />
<glyph unicode="&#x201e;" d="M86 104q0 -125 98 -133h21q80 0 98 60q12 47 41 47q31 0 31 -84q0 -74 -60 -158q-29 -41 -60.5 -73.5t-64.5 -55.5q-12 -10 -12 -16q0 -8 8 -15q10 -10 21 -6q8 0 18 6q88 49 149.5 147.5t61.5 176.5q0 121 -57 178.5t-143 57.5q-57 0 -105 -35q-45 -33 -45 -97zM592 104 q0 -125 98 -133h21q80 0 98 60q12 47 41 47q31 0 31 -84q0 -74 -60 -158q-29 -41 -60.5 -73.5t-64.5 -55.5q-12 -10 -12 -16q0 -8 8 -15q10 -10 21 -6q8 0 18 6q88 49 149.5 147.5t61.5 176.5q0 121 -57.5 178.5t-143.5 57.5q-57 0 -104 -35q-45 -33 -45 -97z" />
<glyph unicode="&#x2022;" horiz-adv-x="641" d="M104 682q0 -92 66 -162q70 -66 162 -65q90 0 160 65q65 70 65 162t-65 162q-70 66 -162 65q-90 0 -160 -65q-66 -70 -66 -162z" />
<glyph unicode="&#x2026;" horiz-adv-x="2048" d="M205 100q0 -53 39 -92q37 -37 90 -37t92 39q37 37 37 90t-39 93q-37 37 -90 36q-53 0 -92 -39q-37 -37 -37 -90zM891 100q0 -53 39 -92q37 -37 90 -37t92 39q37 37 37 90t-39 93q-37 37 -90 36q-53 0 -92 -39q-37 -37 -37 -90zM1577 100q0 -53 39 -92q37 -37 90 -37 t92 39q37 37 37 90t-39 93q-37 37 -90 36q-53 0 -92 -39q-37 -37 -37 -90z" />
<glyph unicode="&#x202f;" horiz-adv-x="384" />
<glyph unicode="&#x2039;" horiz-adv-x="681" d="M160 410q0 -10 14 -19q45 -39 86 -74.5t80 -70.5t77 -73l79 -79q8 -4 12 -4l8 2q4 4 4 12q0 6 -4 19q-35 74 -94 153q-29 41 -56.5 74t-54.5 60q53 53 113 133q57 82 92 153q4 16 4 21q0 4 -4 8t-10 4q-2 0 -10 -4l-80 -80t-78 -73.5t-79 -70.5t-85 -73q-14 -14 -14 -18z " />
<glyph unicode="&#x203a;" horiz-adv-x="681" d="M160 102q0 -6 4 -10l10 -2q4 0 12 4q41 41 80 79t78 73t79 71.5t87 73.5q14 15 14 19t-14 18q-92 74 -168 143q-39 35 -77 74t-79 80q-8 4 -12 4q-6 0 -10 -4t-4 -12q0 -4 4 -17q35 -74 94 -153q31 -41 59.5 -74t55.5 -59q-27 -27 -55.5 -60t-59.5 -74q-59 -80 -94 -153 q-4 -16 -4 -21z" />
<glyph unicode="&#x205f;" horiz-adv-x="480" />
<glyph unicode="&#x20ac;" horiz-adv-x="1366" d="M2 510h123q41 -182 174 -328q190 -213 442 -213q96 0 189 29q86 27 160 86l84 -96h45v418h-60q-59 -225 -166 -306q-109 -80 -229 -80q-180 0 -268 123q-88 121 -88 355v12h628l17 111h-645v159h667l19 111h-686q2 213 86 334q82 123 258 123q121 0 233 -76 q113 -74 156 -289h59v395h-47l-80 -86q-51 43 -133 76q-78 31 -180 31q-270 0 -463 -213q-117 -129 -164 -295h-74l-18 -111h72q-6 -49 -7 -102v-29q0 -14 3 -28h-91z" />
<glyph unicode="&#x2122;" horiz-adv-x="1761" d="M66 1149h36q6 88 52 139q47 53 118 53h56v-630h-121v-27h377v27h-121v630h53q74 0 121 -53q43 -51 49 -139h37v219h-657v-219zM817 684h252v27h-108v622l223 -649h39l229 649v-622h-117v-27h363v27h-111v630h111v27h-281l-160 -469l-155 469h-285v-27h109v-630h-109v-27z " />
<glyph unicode="&#xe000;" horiz-adv-x="1075" d="M0 0v1075h1075v-1075h-1075z" />
</font>
</defs>
</svg>
