<?xml version="1.0" standalone="no"?>
<!DOCTYPE svg PUBLIC "-//W3C//DTD SVG 1.1//EN" "http://www.w3.org/Graphics/SVG/1.1/DTD/svg11.dtd" >
<svg xmlns="http://www.w3.org/2000/svg">
<metadata>
This is a custom SVG webfont generated by Font Squirrel.
Copyright   : Copyright 2006 Process Type Foundry All rights reserved
Designer    : Eric Olson
Foundry     : Eric Olson
Foundry URL : httpwwwprocesstypefoundrycom
</metadata>
<defs>
<font id="KlavikaCHBoldCondensed" horiz-adv-x="438" >
<font-face units-per-em="2048" ascent="1536" descent="-512" />
<missing-glyph horiz-adv-x="389" />
<glyph unicode=" "  horiz-adv-x="389" />
<glyph unicode="&#x09;" horiz-adv-x="389" />
<glyph unicode="&#xa0;" horiz-adv-x="389" />
<glyph unicode="!" horiz-adv-x="458" d="M92 0v319h275v-319h-275zM92 797v567h275v-567l-48 -346h-180z" />
<glyph unicode="&#x22;" horiz-adv-x="786" d="M82 840v524h246v-524h-246zM459 840v524h246v-524h-246z" />
<glyph unicode="#" horiz-adv-x="1124" d="M61 367l9 196h163l13 260h-164l8 197h164l16 344h222l-17 -344h209l16 344h222l-17 -344h158l-8 -197h-158l-12 -260h157l-8 -196h-157l-17 -367h-221l16 367h-209l-16 -367h-221l16 367h-164zM455 563h209l12 260h-209z" />
<glyph unicode="$" horiz-adv-x="849" d="M66 981q0 315 256 365v208h235v-200q102 -6 182 -37l-30 -232q-129 33 -228 33q-141 0 -141 -119q0 -72 24.5 -96t145.5 -76q127 -53 178 -89t78 -106.5t27 -207.5q0 -338 -254 -404v-210h-236v200q-115 12 -217 45l35 236q119 -45 233 -45q86 0 126 33.5t40 109.5 q0 78 -25.5 105.5t-132.5 70.5q-193 78 -244.5 152t-51.5 264z" />
<glyph unicode="%" horiz-adv-x="1556" d="M72 879v241q0 121 69.5 195t213 74t213 -74t69.5 -195v-241q0 -121 -69.5 -195t-213 -74t-213 74t-69.5 195zM293 854q0 -55 61.5 -55t61.5 55v291q0 55 -61.5 55t-61.5 -55v-291zM451 55l456 1334l199 -76l-457 -1338zM920 244v241q0 121 69.5 195t213 74t213 -74 t69.5 -195v-241q0 -121 -69.5 -195t-213 -74t-213 74t-69.5 195zM1141 219q0 -55 61.5 -55t61.5 55v291q0 55 -61.5 55t-61.5 -55v-291z" />
<glyph unicode="&#x26;" horiz-adv-x="1173" d="M72 289v73q0 76 21.5 130.5t50 84t94.5 85.5l30 26l-75 94q-53 68 -73 119t-22 131v55q0 139 102.5 218t270.5 79q172 0 261 -76.5t89 -220.5v-55q-2 -92 -24.5 -152.5t-87.5 -117.5q-25 -23 -103 -88l150 -178l121 200l190 -127q-100 -172 -158 -262l254 -307h-315 q-57 63 -86 100q-66 -68 -144.5 -94t-193.5 -26q-164 0 -258 76.5t-94 232.5zM358 301q0 -96 113 -96q92 0 139 71l-194 232q-55 -57 -58 -123v-84zM362 1020q0 -10 1.5 -18.5t2.5 -15.5t3 -12t6 -12.5l6 -11.5t7 -12t8 -11t10.5 -12.5t11.5 -13.5l47 -57l55 47 q35 31 45 56.5t10 72.5v57q0 90 -106.5 90t-106.5 -90v-57z" />
<glyph unicode="'" horiz-adv-x="409" d="M82 840v524h246v-524h-246z" />
<glyph unicode="(" horiz-adv-x="655" d="M113 679.5q0 278.5 77.5 504t239.5 454.5l201 -114q-143 -264 -193.5 -440.5t-50.5 -403.5t50 -403.5t194 -440.5l-201 -115q-162 229 -239.5 454.5t-77.5 504z" />
<glyph unicode=")" horiz-adv-x="655" d="M25 -164q143 264 193 440.5t50 403.5t-50 403.5t-193 440.5l200 114q162 -229 240 -454.5t78 -504t-78 -503.5t-240 -455z" />
<glyph unicode="*" horiz-adv-x="774" d="M82 1036v140h184l-92 159l121 70l92 -160l92 160l121 -70l-92 -159h184v-140h-186l94 -159l-121 -70l-92 160l-92 -160l-121 70l92 159h-184z" />
<glyph unicode="+" horiz-adv-x="946" d="M92 586v233h250v309h262v-309h250v-233h-250v-310h-262v310h-250z" />
<glyph unicode="," d="M78 -217l90 217h-86v319h274v-319l-149 -274z" />
<glyph unicode="-" horiz-adv-x="608" d="M82 547v237h444v-237h-444z" />
<glyph unicode="." d="M82 0v319h274v-319h-274z" />
<glyph unicode="/" horiz-adv-x="821" d="M61 -240l424 1624h275l-424 -1624h-275z" />
<glyph unicode="0" horiz-adv-x="958" d="M82 340v684q0 168 98.5 266.5t299 98.5t299 -98.5t98.5 -266.5v-684q0 -166 -100.5 -265.5t-297 -99.5t-297 99.5t-100.5 265.5zM360 322q0 -104 119 -104.5t119 104.5v725q0 100 -119 100t-119 -100v-725z" />
<glyph unicode="1" horiz-adv-x="692" d="M10 1061l350 303h230v-1364h-279v987l-168 -123z" />
<glyph unicode="2" horiz-adv-x="833" d="M53 0v219l295 414q88 123 109.5 175t21.5 130v86q0 123 -129 123q-100 0 -235 -47l-41 231q156 57 327 58q356 0 357 -330v-86q0 -154 -26.5 -237t-127.5 -212q-98 -129 -231 -282h395v-242h-715z" />
<glyph unicode="3" horiz-adv-x="813" d="M57 16l31 228q109 -31 223 -31q86 0 119 34t33 103v84q0 70 -28.5 101.5t-100.5 31.5h-209v242h197q125 0 124 123v100q0 70 -33.5 95.5t-113.5 25.5q-100 0 -205 -35l-35 223q143 47 310 48q184 0 270 -79t86 -251v-107q0 -184 -152 -254q168 -31 168 -254v-120 q0 -162 -101 -255.5t-308 -93.5q-158 0 -275 41z" />
<glyph unicode="4" horiz-adv-x="919" d="M45 301v223l404 840h294v-825h142v-238h-142v-301h-258v301h-440zM293 539h192v456z" />
<glyph unicode="5" horiz-adv-x="833" d="M72 12l30 238q127 -33 217 -33q96 0 136.5 36t42.5 118v63q0 74 -35 106.5t-113 32.5h-250v791h621v-242h-342v-307h49q176 0 262 -85t86 -269v-94q0 -178 -112.5 -285t-319.5 -107q-141 0 -272 37z" />
<glyph unicode="6" horiz-adv-x="905" d="M82 354v615q0 223 116.5 321.5t340.5 98.5q127 0 237 -29l-22 -225q-98 25 -189 24q-113 0 -161 -43t-48 -151v-168q74 31 158 30q330 0 330 -325v-162q0 -164 -101.5 -264.5t-281.5 -100.5q-379 0 -379 379zM356 307q0 -102 105 -102q109 0 108 102v199q0 92 -96 92 q-72 0 -117 -23v-268z" />
<glyph unicode="7" horiz-adv-x="813" d="M61 1126v238h711v-199l-391 -1165h-287l389 1126h-422z" />
<glyph unicode="8" horiz-adv-x="925" d="M78 295v117q0 180 168 282q-76 55 -109 112.5t-33 145.5v111q0 326 358.5 326t358.5 -326v-111q0 -88 -32.5 -145t-108.5 -113q168 -102 168 -282v-117q0 -162 -101.5 -241t-283.5 -79t-283.5 79t-101.5 241zM348 303q0 -57 26.5 -83.5t88 -26.5t88.5 26.5t27 83.5v92 q0 63 -20.5 96t-94.5 78q-74 -45 -94.5 -77.5t-20.5 -96.5v-92zM375 952q0 -53 18.5 -81.5t69.5 -69.5q51 41 69.5 69.5t18.5 81.5v121q0 53 -19.5 77t-68.5 24t-68.5 -24t-19.5 -77v-121z" />
<glyph unicode="9" horiz-adv-x="897" d="M53 862v162q0 164 101.5 264.5t281.5 100.5q379 0 379 -379v-615q0 -223 -116.5 -321.5t-340.5 -98.5q-127 0 -237 29l22 225q98 -25 189 -24q113 0 161 43t48 151v168q-74 -31 -158 -30q-330 -1 -330 325zM328 858q0 -92 96 -92q72 0 117 22v269q0 102 -105 102 q-109 0 -108 -102v-199z" />
<glyph unicode=":" horiz-adv-x="458" d="M92 0v319h275v-319h-275zM92 573v320h275v-320h-275z" />
<glyph unicode=";" horiz-adv-x="458" d="M88 -217l90 217h-86v319h275v-319l-150 -274zM92 573v320h275v-320h-275z" />
<glyph unicode="&#x3c;" horiz-adv-x="946" d="M92 573v258l676 318l86 -227l-487 -220l487 -219l-86 -227z" />
<glyph unicode="=" horiz-adv-x="966" d="M102 389v236h762v-236h-762zM102 782v234h762v-234h-762z" />
<glyph unicode="&#x3e;" horiz-adv-x="946" d="M92 483l488 219l-488 220l86 227l676 -318v-258l-676 -317z" />
<glyph unicode="?" horiz-adv-x="802" d="M72 1323q141 66 329 66q330 0 330 -326v-98q0 -102 -27.5 -168t-109.5 -146l-227 -221l-166 182q78 82 166 187q37 43 51 63.5t26.5 51t12.5 65.5v57q0 61 -28 86t-85 25q-117 0 -225 -45zM201 0v319h274v-319h-274z" />
<glyph unicode="@" horiz-adv-x="1306" d="M72 635q0 348 170 551t477 203q244 0 387 -136.5t143 -373.5q0 -233 -102.5 -361.5t-265.5 -128.5q-135 0 -179 88q-61 -74 -153 -74q-68 0 -104.5 40t-36.5 106q0 18 4 43l41 225q18 102 72.5 146.5t156.5 44.5q141 0 258 -78l-68 -385h19q82 0 121 95t39 226 q0 160 -88.5 251t-257.5 91q-199 0 -310.5 -152.5t-111.5 -420.5q0 -244 109.5 -360.5t332.5 -116.5q150 0 279 53l38 -170q-139 -66 -335 -66q-307 0 -471 171.5t-164 488.5zM604 594q-6 -29 25 -29q23 0 57 21l45 245q-25 12 -49 13q-33 0 -39 -35z" />
<glyph unicode="A" horiz-adv-x="937" d="M6 0l297 1364h332l297 -1364h-289l-47 276h-256l-45 -276h-289zM383 526h172l-86 516z" />
<glyph unicode="B" horiz-adv-x="931" d="M92 0v1364h445q158 0 230.5 -71.5t72.5 -217.5v-129q0 -172 -168 -237q215 -31 215 -254v-129q0 -326 -367 -326h-428zM379 238h125q96 0 96 92v159q0 86 -92 86h-129v-337zM379 813h94q82 0 82 88v148q0 78 -72 77h-104v-313z" />
<glyph unicode="C" horiz-adv-x="819" d="M68 385v594q0 197 105.5 303.5t322.5 106.5q152 0 278 -31l-31 -240q-102 20 -213 21q-96 0 -136 -43t-40 -142v-544q0 -98 40 -141.5t136 -43.5q111 0 213 21l31 -240q-127 -31 -278 -31q-217 0 -322.5 106.5t-105.5 303.5z" />
<glyph unicode="D" horiz-adv-x="985" d="M92 0v1364h434q205 0 298.5 -98.5t93.5 -315.5v-536q0 -217 -93.5 -315.5t-298.5 -98.5h-434zM379 250h119q76 0 104.5 33.5t28.5 117.5v562q0 84 -29 117.5t-104 33.5h-119v-864z" />
<glyph unicode="E" horiz-adv-x="854" d="M92 0v1364h699v-250h-412v-301h377v-250h-377v-313h414v-250h-701z" />
<glyph unicode="F" horiz-adv-x="817" d="M92 0v1364h703v-250h-416v-342h381v-250h-381v-522h-287z" />
<glyph unicode="G" horiz-adv-x="940" d="M72 373v602q0 414 432 414q172 0 307 -39l-35 -244q-109 33 -237 33q-96 0 -138.5 -45t-42.5 -144v-567q0 -94 35 -129t121 -35q53 0 86 8v443h264v-639q-166 -55 -364 -56q-217 0 -322.5 104t-105.5 294z" />
<glyph unicode="H" horiz-adv-x="1021" d="M92 0v1364h287v-557h264v557h287v-1364h-287v557h-264v-557h-287z" />
<glyph unicode="I" horiz-adv-x="475" d="M94 0v1364h287v-1364h-287z" />
<glyph unicode="J" horiz-adv-x="471" d="M-39 -254q86 86 108.5 133t22.5 127v1358h287v-1364q0 -145 -46 -219t-212 -205z" />
<glyph unicode="K" horiz-adv-x="1001" d="M92 0v1364h287v-1364h-287zM397 696l232 668h317l-246 -666l285 -698h-330z" />
<glyph unicode="L" horiz-adv-x="768" d="M92 0v1364h287v-1114h344v-250h-631z" />
<glyph unicode="M" horiz-adv-x="1409" d="M92 0v1364h367l246 -1040l245 1040h367v-1364h-273v821l-196 -821h-287l-196 821v-821h-273z" />
<glyph unicode="N" horiz-adv-x="1085" d="M92 0v1364h283l342 -778v778h276v-1364h-284l-340 778v-778h-277z" />
<glyph unicode="O" horiz-adv-x="978" d="M72 399v566q0 197 93 310.5t324.5 113.5t324.5 -114t93 -310v-566q0 -197 -93 -310.5t-324.5 -113.5t-324.5 113.5t-93 310.5zM358 371q0 -74 28 -110t103.5 -36t103.5 36t28 110v622q0 74 -28 110t-103.5 36t-103.5 -36t-28 -110v-622z" />
<glyph unicode="P" horiz-adv-x="923" d="M92 0v1364h436q195 0 282 -83t87 -265v-176q0 -162 -94 -255t-283 -93h-141v-492h-287zM379 737h125q106 0 106 107v168q0 106 -106 106h-125v-381z" />
<glyph unicode="Q" horiz-adv-x="978" d="M72 399v566q0 197 93 310.5t324.5 113.5t324.5 -114t93 -310v-566q0 -299 -200 -385l106 -213l-229 -116l-164 295q-348 28 -348 419zM358 371q0 -74 28 -110t103.5 -36t103.5 36t28 110v622q0 74 -28 110t-103.5 36t-103.5 -36t-28 -110v-622z" />
<glyph unicode="R" horiz-adv-x="1009" d="M92 0v1364h459q195 0 282 -83t87 -265v-172q0 -213 -170 -303l243 -541h-319l-209 496h-86v-496h-287zM379 741h147q106 0 107 107v164q0 106 -107 106h-147v-377z" />
<glyph unicode="S" horiz-adv-x="823" d="M51 1010q0 201 99.5 290t291.5 89q156 0 293 -39l-33 -246q-104 35 -223 35q-76 0 -108.5 -29t-32.5 -94q0 -84 24.5 -113t145.5 -76q94 -37 141 -63.5t82 -76.5t45 -116.5t10 -183.5q0 -412 -411 -412q-168 0 -305 45l34 244q102 -39 234 -39q90 0 127 36t37 112 q0 92 -26.5 120.5t-127.5 61.5q-84 27 -140 59.5t-88 65.5t-46.5 88t-18.5 104.5t-4 137.5z" />
<glyph unicode="T" horiz-adv-x="815" d="M14 1114v250h787v-250h-250v-1114h-287v1114h-250z" />
<glyph unicode="U" horiz-adv-x="1007" d="M82 371v993h287v-1010q0 -63 30.5 -96t104.5 -33t104.5 32t30.5 93v1014h287v-993q0 -395 -422 -395t-422 395z" />
<glyph unicode="V" horiz-adv-x="868" d="M0 1364h299l135 -958l135 958h299l-264 -1364h-340z" />
<glyph unicode="W" horiz-adv-x="1413" d="M4 1364h291l119 -848l164 848h258l163 -848l119 848h291l-244 -1364h-270l-188 819l-189 -819h-270z" />
<glyph unicode="X" horiz-adv-x="935" d="M0 0l317 694l-305 670h299l156 -381l158 381h299l-308 -670l320 -694h-299l-170 403l-168 -403h-299z" />
<glyph unicode="Y" horiz-adv-x="892" d="M-10 1364h315l141 -555l142 555h315l-313 -862v-502h-287v502z" />
<glyph unicode="Z" horiz-adv-x="894" d="M72 0v219l420 895h-406v250h739v-219l-419 -895h428v-250h-762z" />
<glyph unicode="[" horiz-adv-x="573" d="M123 -258v1876h420v-217h-146v-1442h146v-217h-420z" />
<glyph unicode="\" horiz-adv-x="821" d="M61 1384h275l424 -1624h-275z" />
<glyph unicode="]" horiz-adv-x="573" d="M31 -41h145v1442h-145v217h420v-1876h-420v217z" />
<glyph unicode="^" horiz-adv-x="884" d="M61 795l246 569h271l245 -569l-225 -84l-156 409l-155 -409z" />
<glyph unicode="_" horiz-adv-x="667" d="M-2 -205h672v-217h-672v217z" />
<glyph unicode="`" horiz-adv-x="751" d="M184 1278l133 184q100 -92 250 -196l-121 -166q-127 76 -262 178z" />
<glyph unicode="a" horiz-adv-x="819" d="M47 287q0 154 65.5 226.5t211.5 72.5h159v92q0 57 -25.5 79.5t-78.5 22.5q-119 0 -234 -37l-39 226q154 49 312 49q182 0 261 -75t79 -263v-680h-219l-31 66q-80 -86 -211 -86q-250 0 -250 307zM322 287q0 -88 77 -88q47 0 84 14v158h-96q-37 0 -51 -19.5t-14 -64.5z" />
<glyph unicode="b" horiz-adv-x="872" d="M82 35v1370l274 41v-502q88 74 207 74q133 0 194.5 -74t61.5 -233v-392q0 -172 -104.5 -255.5t-294.5 -83.5q-176 0 -338 55zM356 227q33 -10 74 -10q115 0 115 107v378q0 78 -74 78q-55 0 -115 -35v-518z" />
<glyph unicode="c" horiz-adv-x="655" d="M53 350v297q0 178 91.5 274.5t269.5 96.5q119 0 211 -29l-27 -223q-57 14 -131 14q-76 0 -107.5 -35.5t-31.5 -105.5v-281q0 -70 31.5 -105.5t107.5 -35.5q74 0 131 14l27 -223q-92 -29 -211 -28q-178 0 -269.5 96t-91.5 274z" />
<glyph unicode="d" horiz-adv-x="872" d="M53 285v397q0 336 299 336q88 0 164 -29v416l275 41v-1446h-216l-26 72q-102 -92 -236 -92q-260 0 -260 305zM328 297q0 -80 71 -80q61 0 117 41v506q-37 16 -86 16q-51 0 -76.5 -21.5t-25.5 -76.5v-385z" />
<glyph unicode="e" horiz-adv-x="808" d="M53 340v317q0 168 92.5 264.5t266.5 96.5q190 0 265 -95.5t75 -271.5v-243h-424v-60q0 -82 30.5 -111.5t118.5 -29.5q109 0 234 39l39 -209q-156 -57 -322 -57q-375 0 -375 360zM328 614h172v86q0 96 -84 97q-88 0 -88 -101v-82z" />
<glyph unicode="f" horiz-adv-x="532" d="M16 760v237h95v150q0 299 286 299q113 0 197 -33l-25 -219q-57 14 -110 14q-39 0 -56.5 -17t-17.5 -63v-131h174l-16 -237h-158v-760h-274v760h-95z" />
<glyph unicode="g" horiz-adv-x="800" d="M29 621v43q2 170 92 262t262 92q74 0 141 -21h291v-139l-104 -33q27 -76 26 -161v-43q0 -348 -344 -353q-18 -33 -18 -57q0 -37 37 -43l129 -16q125 -14 179 -74t54 -199q0 -158 -96 -230.5t-289 -72.5q-158 0 -293 39l37 215q119 -33 250 -33q133 0 133 66 q0 31 -14.5 43t-52.5 16l-185 25q-84 10 -123 48t-39 122q0 111 95 184q-168 74 -168 320zM293 575q0 -96 90 -96t90 96v115q0 115 -90 115t-90 -115v-115z" />
<glyph unicode="h" horiz-adv-x="866" d="M82 0v1405l274 41v-510q98 82 224 82q215 0 215 -240v-778h-275v715q0 66 -59.5 65.5t-104.5 -37.5v-743h-274z" />
<glyph unicode="i" d="M82 0v997h274v-997h-274zM82 1116v322h274v-322h-274z" />
<glyph unicode="j" d="M-53 -258q82 88 108.5 128t26.5 93v1034h274v-1048q0 -109 -43 -179.5t-196 -193.5zM82 1116v322h274v-322h-274z" />
<glyph unicode="k" horiz-adv-x="854" d="M82 0v1405l274 41v-1446h-274zM367 504l170 493h294l-178 -495l195 -502h-297z" />
<glyph unicode="l" d="M82 0v1405l274 41v-1446h-274z" />
<glyph unicode="m" horiz-adv-x="1284" d="M82 0v997h227l27 -75q104 96 233 96q139 0 187 -98q121 98 241 98q215 0 215 -240v-778h-274v715q0 66 -59 65q-47 0 -95 -37v-743h-274v715q0 66 -59 65q-49 0 -95 -37v-743h-274z" />
<glyph unicode="n" horiz-adv-x="866" d="M82 0v997h227l27 -75q106 96 244 96q215 0 215 -240v-778h-275v715q0 66 -59 65q-57 0 -105 -37v-743h-274z" />
<glyph unicode="o" horiz-adv-x="860" d="M53 332v334q0 164 95.5 258t281.5 94t281.5 -94.5t95.5 -257.5v-334q0 -164 -95.5 -258t-281.5 -94t-281.5 94t-95.5 258zM328 307q0 -90 102 -90t102 90v383q0 90 -102 90t-102 -90v-383z" />
<glyph unicode="p" horiz-adv-x="876" d="M82 -444v1441h215l27 -71q102 92 235 92q260 0 260 -305v-398q0 -336 -299 -335q-88 0 -164 28v-411zM356 233q37 -16 86 -16q51 0 77 21.5t26 76.5v385q0 80 -72 80q-61 0 -117 -41v-506z" />
<glyph unicode="q" horiz-adv-x="880" d="M61 287v391q0 172 104.5 256t295.5 84q176 0 338 -55v-1366l-275 -41v497q-88 -74 -207 -73q-133 0 -194.5 73.5t-61.5 233.5zM336 295q0 -78 74 -78q55 0 114 35v518q-33 10 -73 10q-115 0 -115 -106v-379z" />
<glyph unicode="r" horiz-adv-x="569" d="M82 0v997h223l29 -104q100 92 227 111l14 -271q-119 -14 -219 -51v-682h-274z" />
<glyph unicode="s" horiz-adv-x="720" d="M49 29l39 225q111 -41 231 -41q51 0 73 16.5t22 53.5q0 43 -17.5 56t-91.5 36q-160 47 -206 110.5t-46 225.5q0 168 84 237.5t266 69.5q133 0 242 -35l-27 -223q-119 25 -200 24q-53 0 -73.5 -15t-20.5 -54q0 -41 15 -55.5t75 -32.5q90 -27 132 -45.5t79 -53t48 -87 t11 -140.5q0 -150 -82 -235.5t-258 -85.5t-295 49z" />
<glyph unicode="t" horiz-adv-x="593" d="M10 760v237h101v256l274 31v-287h188l-12 -237h-176v-475q0 -37 14.5 -52.5t51.5 -15.5q39 0 100 14l18 -221q-113 -31 -213 -30q-246 0 -245 264v516h-101z" />
<glyph unicode="u" horiz-adv-x="858" d="M72 219v778h274v-714q0 -66 60 -66q51 0 96 37v743h274v-997h-227l-27 76q-100 -96 -235 -96q-215 -1 -215 239z" />
<glyph unicode="v" horiz-adv-x="774" d="M0 997h276l111 -710l111 710h276l-231 -997h-312z" />
<glyph unicode="w" horiz-adv-x="1146" d="M6 997h252l68 -548l112 548h271l112 -548l68 548h252l-158 -997h-268l-142 625l-141 -625h-268z" />
<glyph unicode="x" horiz-adv-x="786" d="M-4 0l262 500l-260 497h272l123 -266l123 266h272l-262 -497l265 -500h-273l-125 270l-125 -270h-272z" />
<glyph unicode="y" horiz-adv-x="768" d="M0 997h276l107 -710l115 710h276l-317 -1400h-258l94 403h-80z" />
<glyph unicode="z" horiz-adv-x="753" d="M61 0v193l322 581h-317v223h626v-192l-321 -582h331v-223h-641z" />
<glyph unicode="{" horiz-adv-x="634" d="M51 569v222h53q74 0 74 69v453q0 305 289 305h137v-217h-69q-82 0 -82 -86v-420q0 -207 -185 -215q184 -12 185 -215v-420q0 -86 82 -86h69v-217h-137q-289 0 -289 305v453q0 70 -74 69h-53z" />
<glyph unicode="|" horiz-adv-x="552" d="M143 -258v1876h267v-1876h-267z" />
<glyph unicode="}" horiz-adv-x="634" d="M31 -41h69q82 0 82 86v420q0 203 185 215q-184 8 -185 215v420q0 86 -82 86h-69v217h137q289 0 289 -305v-453q0 -70 73 -69h54v-222h-54q-74 0 -73 -69v-453q0 -305 -289 -305h-137v217z" />
<glyph unicode="~" horiz-adv-x="927" d="M82 569q20 330 227 330q82 0 166 -49q12 -6 29.5 -17.5t24.5 -15.5l20 -11q12 -7 19 -9t15.5 -4t16.5 -2q23 0 36 17t16 34.5l10 56.5l184 -65q-2 -156 -55.5 -241t-153.5 -85q-74 0 -164 51q-6 4 -32.5 20.5t-37 21.5t-28 11t-31.5 6q-20 0 -34.5 -16t-19.5 -34.5 l-16 -59.5z" />
<glyph unicode="&#xa1;" horiz-adv-x="479" d="M102 178l48 346h180l47 -346v-581h-275v581zM102 678v319h275v-319h-275z" />
<glyph unicode="&#xa2;" horiz-adv-x="753" d="M82 555v256q0 299 242 354v199h221v-188q90 -14 137 -37l-27 -217q-76 23 -153.5 22.5t-111.5 -35.5t-34 -116v-220q0 -82 34 -116.5t112 -34.5q82 0 153 22l27 -217q-47 -25 -150 -39v-188h-221v201q-229 61 -229 354z" />
<glyph unicode="&#xa3;" horiz-adv-x="901" d="M61 0v190q70 100 103 177t45 180h-148v231h158v230q0 190 101.5 285.5t267.5 95.5q127 0 252 -35l-35 -226q-80 23 -156 23q-82 0 -118.5 -35t-36.5 -129v-209h292l-14 -231h-289q-20 -158 -118 -309h446v-238h-750z" />
<glyph unicode="&#xa4;" horiz-adv-x="987" d="M72 276l104 107q-43 84 -43 201v198q0 115 43 201l-104 107l164 163l129 -129q59 16 129 17q68 0 129 -17l129 129l163 -163l-106 -107q45 -84 45 -201v-198q0 -119 -45 -201l106 -107l-163 -163l-129 129q-61 -16 -129 -17q-70 0 -129 17l-129 -129zM391 541 q0 -94 102.5 -94.5t102.5 94.5v284q0 94 -102.5 94.5t-102.5 -94.5v-284z" />
<glyph unicode="&#xa5;" horiz-adv-x="921" d="M41 1364h287l133 -555l133 555h287l-168 -514h123v-211h-191l-45 -137v-4h236v-211h-236v-287h-278v287h-236v211h236v4l-46 137h-190v211h121z" />
<glyph unicode="&#xa6;" horiz-adv-x="552" d="M143 -258v797h267v-797h-267zM143 821v797h267v-797h-267z" />
<glyph unicode="&#xa7;" horiz-adv-x="993" d="M82 1081q0 158 70.5 233t218.5 75q143 0 276 -54l-31 -190q-131 39 -213 39q-74 0 -73 -76q0 -240 48 -458t161 -566l-213 -84q-244 620 -244 1081zM367 -330l30 191q131 -39 213 -39q74 0 74 76q0 240 -48 457.5t-161 566.5l213 84q244 -621 244 -1082 q0 -158 -70.5 -232.5t-218.5 -74.5q-143 0 -276 53z" />
<glyph unicode="&#xa8;" horiz-adv-x="884" d="M184 1143v266h213v-266h-213zM487 1143v266h213v-266h-213z" />
<glyph unicode="&#xa9;" horiz-adv-x="1548" d="M72 682q0 299 195.5 500.5t506.5 201.5t507 -201.5t196 -500.5q0 -297 -196 -499.5t-507 -202.5t-506.5 202.5t-195.5 499.5zM209 682q0 -252 150.5 -411.5t414.5 -159.5t414.5 159.5t150.5 411.5t-150.5 411.5t-414.5 159.5t-414.5 -159.5t-150.5 -411.5zM516 604v162 q0 276 285 276q102 0 190 -32l-26 -162q-70 20 -138 20q-53 0 -74.5 -24.5t-21.5 -75.5v-166q0 -51 21.5 -75.5t74.5 -24.5q68 0 138 20l26 -162q-88 -33 -190 -32q-285 0 -285 276z" />
<glyph unicode="&#xaa;" horiz-adv-x="675" d="M102 922q0 168 187 168h100v79q0 63 -61 64q-72 0 -152 -27l-29 152q92 31 207 31q123 0 171 -54.5t48 -171.5v-426h-151l-14 39q-63 -51 -148 -51q-158 0 -158 197zM287 915q0 -47 45 -47q25 0 57 9v81h-59q-43 0 -43 -43z" />
<glyph unicode="&#xab;" horiz-adv-x="1079" d="M92 541l232 417l221 -106l-164 -311l164 -312l-221 -106zM514 541l231 417l222 -106l-164 -311l164 -312l-222 -106z" />
<glyph unicode="&#xac;" horiz-adv-x="956" d="M92 741v234h762v-543h-262v309h-500z" />
<glyph unicode="&#xad;" horiz-adv-x="608" d="M82 547v237h444v-237h-444z" />
<glyph unicode="&#xae;" horiz-adv-x="882" d="M72 1054.5q0 157.5 102 264t266 106.5q166 0 268.5 -106.5t102.5 -264t-102.5 -265t-268.5 -107.5q-164 0 -266 107.5t-102 265zM170 1055q0 -119 65.5 -204t205 -85t206 85t66.5 204t-66.5 202.5t-206 83.5t-205 -83.5t-65.5 -202.5zM311 893v340h170q96 0 97 -98v-33 q0 -61 -46 -84l76 -125h-108l-64 111h-30v-111h-95zM406 1077h53q27 0 26 25v33q0 23 -26 22h-53v-80z" />
<glyph unicode="&#xaf;" horiz-adv-x="856" d="M184 1178v206h488v-206h-488z" />
<glyph unicode="&#xb0;" horiz-adv-x="714" d="M82 1122.5q0 114.5 78 190.5t198.5 76t197.5 -76t77 -190.5t-77 -190.5t-197.5 -76t-198.5 76t-78 190.5zM248 1122q0 -125 110 -125q109 0 109 125t-109 125q-110 0 -110 -125z" />
<glyph unicode="&#xb1;" horiz-adv-x="987" d="M113 0v225h761v-225h-761zM113 627v233h249v268h263v-268h249v-233h-249v-269h-263v269h-249z" />
<glyph unicode="&#xb2;" horiz-adv-x="765" d="M123 543v159l192 197q53 57 75 93t22 89v23q0 84 -86 84q-78 0 -166 -29l-27 182q109 43 238 43q256 0 256 -241v-51q0 -86 -19.5 -138.5t-79.5 -109.5q-70 -66 -135 -121h250v-180h-520z" />
<glyph unicode="&#xb3;" horiz-adv-x="724" d="M123 557l27 164q76 -25 153 -25q51 0 71.5 17.5t20.5 56.5v33q0 37 -16.5 52t-56.5 15h-138v166h131q68 0 68 62v45q0 41 -17.5 56t-66.5 15q-61 0 -141 -22l-21 162q98 31 195 30q139 0 198.5 -51t59.5 -164v-47q0 -117 -94 -161q61 -16 83.5 -54.5t22.5 -103.5v-53 q0 -106 -68.5 -167t-199.5 -61q-113 0 -211 35z" />
<glyph unicode="&#xb4;" horiz-adv-x="751" d="M184 1266q150 104 250 196l133 -184q-135 -102 -262 -178z" />
<glyph unicode="&#xb5;" horiz-adv-x="858" d="M72 -444v1441h274v-714q0 -66 60 -66q51 0 96 37v743h274v-997h-227l-27 76q-76 -74 -176 -90v-389z" />
<glyph unicode="&#xb6;" horiz-adv-x="985" d="M82 903q0 223 125 342t330 119v-920q-205 0 -330 118t-125 341zM451 -264q94 88 119.5 114.5t46 69.5t20.5 103v1341h246v-1315q0 -113 -30 -185.5t-79 -122.5t-186 -165z" />
<glyph unicode="&#xb7;" d="M82 492v319h274v-319h-274z" />
<glyph unicode="&#xb8;" horiz-adv-x="712" d="M184 -377l23 119q55 -20 117 -21q55 0 55 46q0 37 -51 36q-20 0 -66 -4l-41 35l39 207h129l-22 -137q162 0 161 -140q0 -80 -50 -123.5t-142 -43.5q-76 -1 -152 26z" />
<glyph unicode="&#xb9;" horiz-adv-x="645" d="M82 1178l250 186h170v-821h-215v569l-121 -70z" />
<glyph unicode="&#xba;" horiz-adv-x="651" d="M92 940v234q0 98 59.5 156.5t174 58.5t174 -58.5t59.5 -156.5v-234q0 -98 -59.5 -156.5t-174 -58.5t-174 58.5t-59.5 156.5zM276 930q0 -49 49.5 -49t49.5 49v254q0 49 -49.5 49t-49.5 -49v-254z" />
<glyph unicode="&#xbb;" horiz-adv-x="1079" d="M113 229l163 312l-163 311l221 106l231 -417l-231 -418zM535 229l163 312l-163 311l221 106l231 -417l-231 -418z" />
<glyph unicode="&#xbc;" horiz-adv-x="1613" d="M102 1178l250 186h170v-821h-215v569l-121 -70zM422 -25l522 1440l164 -65l-522 -1440zM870 168v137l260 524h256v-505h105v-156h-105v-168h-192v168h-324zM1055 324h139v321z" />
<glyph unicode="&#xbd;" horiz-adv-x="1656" d="M102 1178l250 186h170v-821h-215v569l-121 -70zM428 -25l522 1440l164 -65l-522 -1440zM1004 0v160l192 196q53 57 74.5 93t21.5 90v22q0 84 -86 84q-78 0 -166 -29l-26 183q109 43 237 43q256 0 256 -242v-51q0 -86 -19.5 -138.5t-78.5 -109.5q-70 -66 -135 -121h250 v-180h-520z" />
<glyph unicode="&#xbe;" horiz-adv-x="1640" d="M123 557l27 164q76 -25 153 -25q51 0 71.5 17.5t20.5 56.5v33q0 37 -16.5 52t-56.5 15h-138v166h131q68 0 68 62v45q0 41 -17.5 56t-66.5 15q-61 0 -141 -22l-21 162q98 31 195 30q139 0 198.5 -51t59.5 -164v-47q0 -117 -94 -161q61 -16 83.5 -54.5t22.5 -103.5v-53 q0 -106 -68.5 -167t-199.5 -61q-113 0 -211 35zM449 -25l522 1440l164 -65l-523 -1440zM897 168v137l260 524h256v-505h105v-156h-105v-168h-192v168h-324zM1081 324h140v321z" />
<glyph unicode="&#xbf;" horiz-adv-x="823" d="M82 0q0 102 27.5 167.5t109.5 145.5l227 222l166 -183q-78 -82 -166 -186q-37 -43 -51 -63.5t-26.5 -51.5t-12.5 -65v-58q0 -61 28 -85.5t85 -24.5q117 0 225 45l47 -221q-141 -66 -329 -66q-330 0 -330 326v98zM338 678v319h274v-319h-274z" />
<glyph unicode="&#xc0;" horiz-adv-x="937" d="M6 0l297 1364h332l297 -1364h-289l-47 276h-256l-45 -276h-289zM256 1614l123 186q123 -106 256 -188l-113 -164q-196 113 -266 166zM383 526h172l-86 516z" />
<glyph unicode="&#xc1;" horiz-adv-x="937" d="M6 0l297 1364h332l297 -1364h-289l-47 276h-256l-45 -276h-289zM322 1612q133 82 256 188l122 -186q-104 -82 -266 -166zM383 526h172l-86 516z" />
<glyph unicode="&#xc2;" horiz-adv-x="937" d="M6 0l297 1364h332l297 -1364h-289l-47 276h-256l-45 -276h-289zM209 1589q170 129 260 211q90 -82 260 -211l-104 -141q-76 45 -156 108q-80 -63 -156 -108zM383 526h172l-86 516z" />
<glyph unicode="&#xc3;" horiz-adv-x="937" d="M6 0l297 1364h332l297 -1364h-289l-47 276h-256l-45 -276h-289zM176 1581q82 195 199 195q55 0 112 -39q61 -41 80 -41q37 0 68 69l135 -77q-39 -96 -81 -144.5t-109 -48.5q-45 0 -117 43q-57 35 -76 35q-8 0 -16.5 -3t-14.5 -7t-13 -13.5t-10 -14.5l-11 -19 q-8 -14 -13 -19zM383 526h172l-86 516z" />
<glyph unicode="&#xc4;" horiz-adv-x="937" d="M6 0l297 1364h332l297 -1364h-289l-47 276h-256l-45 -276h-289zM211 1499v266h213v-266h-213zM383 526h172l-86 516zM514 1499v266h213v-266h-213z" />
<glyph unicode="&#xc5;" horiz-adv-x="937" d="M6 0l297 1362q-18 37 -18 88q0 84 51 133t133 49t133 -49t51 -133q0 -41 -18 -86l297 -1364h-289l-47 276h-256l-45 -276h-289zM383 526h172l-86 537zM408 1450q0 -72 61 -72t61 72q0 74 -61 74t-61 -74z" />
<glyph unicode="&#xc6;" horiz-adv-x="1290" d="M6 0l285 1364h936v-250h-512l63 -301h414v-250h-361l66 -313h332v-250h-570l-45 276h-270l-45 -276h-293zM385 526h188l-94 572z" />
<glyph unicode="&#xc7;" horiz-adv-x="819" d="M68 385v594q0 197 105.5 303.5t322.5 106.5q152 0 278 -31l-31 -240q-102 20 -213 21q-96 0 -136 -43t-40 -142v-544q0 -98 40 -141.5t136 -43.5q111 0 213 21l31 -240q-115 -27 -229 -29l-13 -73q162 0 162 -140q0 -80 -50 -123.5t-142 -43.5q-76 0 -152 26l23 119 q55 -20 116 -21q55 0 56 46q0 37 -51 36q-20 0 -66 -4l-41 35l27 148q-346 34 -346 403z" />
<glyph unicode="&#xc8;" horiz-adv-x="854" d="M92 0v1364h699v-250h-412v-301h377v-250h-377v-313h414v-250h-701zM238 1614l122 186q123 -106 256 -188l-112 -164q-196 113 -266 166z" />
<glyph unicode="&#xc9;" horiz-adv-x="854" d="M92 0v1364h699v-250h-412v-301h377v-250h-377v-313h414v-250h-701zM276 1612q133 82 256 188l123 -186q-104 -82 -266 -166z" />
<glyph unicode="&#xca;" horiz-adv-x="854" d="M92 0v1364h699v-250h-412v-301h377v-250h-377v-313h414v-250h-701zM199 1589q170 129 260 211q90 -82 260 -211l-105 -141q-76 45 -155 108q-80 -63 -156 -108z" />
<glyph unicode="&#xcb;" horiz-adv-x="854" d="M92 0v1364h699v-250h-412v-301h377v-250h-377v-313h414v-250h-701zM193 1499v266h213v-266h-213zM496 1499v266h213v-266h-213z" />
<glyph unicode="&#xcc;" horiz-adv-x="475" d="M10 1614l123 186q123 -106 256 -188l-113 -164q-196 113 -266 166zM94 0v1364h287v-1364h-287z" />
<glyph unicode="&#xcd;" horiz-adv-x="475" d="M74 1612q133 82 256 188l123 -186q-104 -82 -267 -166zM94 0v1364h287v-1364h-287z" />
<glyph unicode="&#xce;" horiz-adv-x="475" d="M-23 1589q170 129 261 211q90 -82 260 -211l-105 -141q-76 45 -155 108q-80 -63 -156 -108zM94 0v1364h287v-1364h-287z" />
<glyph unicode="&#xcf;" horiz-adv-x="475" d="M-20 1499v266h213v-266h-213zM94 0v1364h287v-1364h-287zM283 1499v266h213v-266h-213z" />
<glyph unicode="&#xd0;" horiz-adv-x="1034" d="M61 563v240h70v561h438q203 0 300.5 -99.5t97.5 -314.5v-536q0 -215 -97.5 -314.5t-300.5 -99.5h-438v563h-70zM418 250h123q80 0 109.5 37t29.5 123v544q0 86 -29.5 123t-109.5 37h-123v-311h145v-240h-145v-313z" />
<glyph unicode="&#xd1;" horiz-adv-x="1085" d="M92 0v1364h283l342 -778v778h276v-1364h-284l-340 778v-778h-277zM258 1581q82 195 199 195q55 0 112 -39q61 -41 80 -41q37 0 68 69l135 -77q-39 -96 -81 -144.5t-109 -48.5q-45 0 -117 43q-57 35 -76 35q-8 0 -16.5 -3t-14.5 -7t-13 -13.5t-10 -14.5l-12 -19 q-8 -14 -12 -19z" />
<glyph unicode="&#xd2;" horiz-adv-x="978" d="M72 399v566q0 197 93 310.5t324.5 113.5t324.5 -114t93 -310v-566q0 -197 -93 -310.5t-324.5 -113.5t-324.5 113.5t-93 310.5zM276 1614l123 186q123 -106 256 -188l-112 -164q-197 113 -267 166zM358 371q0 -74 28 -110t103.5 -36t103.5 36t28 110v622q0 74 -28 110 t-103.5 36t-103.5 -36t-28 -110v-622z" />
<glyph unicode="&#xd3;" horiz-adv-x="978" d="M72 399v566q0 197 93 310.5t324.5 113.5t324.5 -114t93 -310v-566q0 -197 -93 -310.5t-324.5 -113.5t-324.5 113.5t-93 310.5zM311 1612q133 82 256 188l123 -186q-104 -82 -266 -166zM358 371q0 -74 28 -110t103.5 -36t103.5 36t28 110v622q0 74 -28 110t-103.5 36 t-103.5 -36t-28 -110v-622z" />
<glyph unicode="&#xd4;" horiz-adv-x="978" d="M72 399v566q0 197 93 310.5t324.5 113.5t324.5 -114t93 -310v-566q0 -197 -93 -310.5t-324.5 -113.5t-324.5 113.5t-93 310.5zM229 1589q170 129 260 211q90 -82 261 -211l-105 -141q-76 45 -156 108q-80 -63 -155 -108zM358 371q0 -74 28 -110t103.5 -36t103.5 36 t28 110v622q0 74 -28 110t-103.5 36t-103.5 -36t-28 -110v-622z" />
<glyph unicode="&#xd5;" horiz-adv-x="978" d="M72 399v566q0 197 93 310.5t324.5 113.5t324.5 -114t93 -310v-566q0 -197 -93 -310.5t-324.5 -113.5t-324.5 113.5t-93 310.5zM199 1581q82 195 198 195q53 0 113 -39q61 -41 80 -41q37 0 67 69l136 -77q-39 -96 -81 -144.5t-110 -48.5q-45 0 -117 43q-57 35 -75 35 q-8 0 -16.5 -3t-14.5 -7t-13.5 -13.5t-10.5 -14.5l-11 -19q-8 -14 -12 -19zM358 371q0 -74 28 -110t103.5 -36t103.5 36t28 110v622q0 74 -28 110t-103.5 36t-103.5 -36t-28 -110v-622z" />
<glyph unicode="&#xd6;" horiz-adv-x="978" d="M72 399v566q0 197 93 310.5t324.5 113.5t324.5 -114t93 -310v-566q0 -197 -93 -310.5t-324.5 -113.5t-324.5 113.5t-93 310.5zM231 1499v266h213v-266h-213zM358 371q0 -74 28 -110t103.5 -36t103.5 36t28 110v622q0 74 -28 110t-103.5 36t-103.5 -36t-28 -110v-622z M535 1499v266h213v-266h-213z" />
<glyph unicode="&#xd7;" horiz-adv-x="966" d="M102 487l215 215l-215 216l166 165l215 -215l215 215l166 -165l-215 -216l215 -215l-166 -165l-215 215l-215 -215z" />
<glyph unicode="&#xd8;" horiz-adv-x="978" d="M72 -68l80 172q-80 102 -80 295v566q0 197 93 310.5t324 113.5q143 0 238 -50l70 148l110 -55l-82 -172q82 -100 82 -295v-566q0 -197 -93 -310.5t-325 -113.5q-141 0 -239 50l-68 -148zM358 545l248 534q-27 59 -117 60q-76 0 -103.5 -36t-27.5 -110v-448zM371 283 q25 -57 118 -58q76 0 104 36t28 110v446z" />
<glyph unicode="&#xd9;" horiz-adv-x="1007" d="M82 371v993h287v-1010q0 -63 30.5 -96t104.5 -33t104.5 32t30.5 93v1014h287v-993q0 -395 -422 -395t-422 395zM295 1614l123 186q123 -106 256 -188l-113 -164q-196 113 -266 166z" />
<glyph unicode="&#xda;" horiz-adv-x="1007" d="M82 371v993h287v-1010q0 -63 30.5 -96t104.5 -33t104.5 32t30.5 93v1014h287v-993q0 -395 -422 -395t-422 395zM330 1612q133 82 256 188l123 -186q-104 -82 -267 -166z" />
<glyph unicode="&#xdb;" horiz-adv-x="1007" d="M82 371v993h287v-1010q0 -63 30.5 -96t104.5 -33t104.5 32t30.5 93v1014h287v-993q0 -395 -422 -395t-422 395zM244 1589q170 129 260 211q90 -82 260 -211l-105 -141q-76 45 -155 108q-80 -63 -156 -108z" />
<glyph unicode="&#xdc;" horiz-adv-x="1007" d="M82 371v993h287v-1010q0 -63 30.5 -96t104.5 -33t104.5 32t30.5 93v1014h287v-993q0 -395 -422 -395t-422 395zM246 1499v266h213v-266h-213zM549 1499v266h213v-266h-213z" />
<glyph unicode="&#xdd;" horiz-adv-x="892" d="M-10 1364h315l141 -555l142 555h315l-313 -862v-502h-287v502zM297 1612q133 82 256 188l123 -186q-104 -82 -266 -166z" />
<glyph unicode="&#xde;" horiz-adv-x="944" d="M92 0v1364h287v-229h170q195 0 282 -83t87 -266v-196q0 -166 -93.5 -257t-283.5 -91h-162v-242h-287zM379 487h145q106 0 107 107v188q0 106 -107 107h-145v-402z" />
<glyph unicode="&#xdf;" horiz-adv-x="970" d="M82 0v1061q0 178 104.5 262t284.5 84q168 0 265.5 -85t97.5 -232q0 -86 -13.5 -136.5t-50.5 -122.5q-57 -109 -57 -139q0 -10 2 -19t11 -21.5t16 -19.5l27 -28l32 -33q88 -92 116.5 -142t28.5 -136q0 -303 -289 -303q-119 0 -200 26l20 207q59 -14 127 -14 q43 0 60.5 13.5t17.5 45.5q0 12 -3 22.5t-6 17.5t-15 18l-20 18q-9 8 -32 27l-39 32q-80 68 -104.5 125.5t-24.5 137.5q0 70 64 206q39 84 49 119t10 86q0 115 -100 115q-104 0 -105 -119v-1073h-274z" />
<glyph unicode="&#xe0;" horiz-adv-x="819" d="M47 287q0 154 65.5 226.5t211.5 72.5h159v92q0 57 -25.5 79.5t-78.5 22.5q-119 0 -234 -37l-39 226q154 49 312 49q182 0 261 -75t79 -263v-680h-219l-31 66q-80 -86 -211 -86q-250 0 -250 307zM211 1278l133 184q100 -92 250 -196l-121 -166q-127 76 -262 178zM322 287 q0 -88 77 -88q47 0 84 14v158h-96q-37 0 -51 -19.5t-14 -64.5z" />
<glyph unicode="&#xe1;" horiz-adv-x="819" d="M47 287q0 154 65.5 226.5t211.5 72.5h159v92q0 57 -25.5 79.5t-78.5 22.5q-119 0 -234 -37l-39 226q154 49 312 49q182 0 261 -75t79 -263v-680h-219l-31 66q-80 -86 -211 -86q-250 0 -250 307zM244 1266q150 104 250 196l133 -184q-135 -102 -262 -178zM322 287 q0 -88 77 -88q47 0 84 14v158h-96q-37 0 -51 -19.5t-14 -64.5z" />
<glyph unicode="&#xe2;" horiz-adv-x="819" d="M47 287q0 154 65.5 226.5t211.5 72.5h159v92q0 57 -25.5 79.5t-78.5 22.5q-119 0 -234 -37l-39 226q154 49 312 49q182 0 261 -75t79 -263v-680h-219l-31 66q-80 -86 -211 -86q-250 0 -250 307zM176 1241l256 221l256 -221l-104 -141q-53 35 -152 119q-96 -82 -151 -119z M322 287q0 -88 77 -88q47 0 84 14v158h-96q-37 0 -51 -19.5t-14 -64.5z" />
<glyph unicode="&#xe3;" horiz-adv-x="819" d="M47 287q0 154 65.5 226.5t211.5 72.5h159v92q0 57 -25.5 79.5t-78.5 22.5q-119 0 -234 -37l-39 226q154 49 312 49q182 0 261 -75t79 -263v-680h-219l-31 66q-80 -86 -211 -86q-250 0 -250 307zM129 1229q82 195 199 194q53 0 112 -39q61 -41 80 -41q37 0 68 70l135 -78 q-39 -96 -81 -144t-110 -48q-45 0 -116 43q-57 35 -76 35q-8 0 -16.5 -3.5t-14.5 -7.5t-13 -13t-10 -14l-12 -20q-8 -14 -12 -18zM322 287q0 -88 77 -88q47 0 84 14v158h-96q-37 0 -51 -19.5t-14 -64.5z" />
<glyph unicode="&#xe4;" horiz-adv-x="819" d="M47 287q0 154 65.5 226.5t211.5 72.5h159v92q0 57 -25.5 79.5t-78.5 22.5q-119 0 -234 -37l-39 226q154 49 312 49q182 0 261 -75t79 -263v-680h-219l-31 66q-80 -86 -211 -86q-250 0 -250 307zM172 1143v266h213v-266h-213zM322 287q0 -88 77 -88q47 0 84 14v158h-96 q-37 0 -51 -19.5t-14 -64.5zM475 1143v266h213v-266h-213z" />
<glyph unicode="&#xe5;" horiz-adv-x="819" d="M47 287q0 154 65.5 226.5t211.5 72.5h159v92q0 57 -25.5 79.5t-78.5 22.5q-119 0 -234 -37l-39 226q154 49 312 49q182 0 261 -75t79 -263v-680h-219l-31 66q-80 -86 -211 -86q-250 0 -250 307zM248 1294q0 84 51 133.5t133 49.5t133 -49.5t51 -133.5t-51 -132t-133 -48 t-133 48t-51 132zM322 287q0 -88 77 -88q47 0 84 14v158h-96q-37 0 -51 -19.5t-14 -64.5zM371 1294q0 -72 61.5 -71.5t61.5 71.5q0 74 -61.5 74t-61.5 -74z" />
<glyph unicode="&#xe6;" horiz-adv-x="1239" d="M47 287q0 154 65.5 226.5t211.5 72.5h170v92q0 57 -26 79.5t-79 22.5q-115 0 -237 -39l-46 226q141 51 279 51q88 0 141.5 -16.5t94.5 -63.5q74 80 229 80q186 0 259 -95.5t73 -271.5v-243h-414v-60q0 -82 28.5 -111.5t110.5 -29.5q125 0 240 37l33 -209 q-131 -55 -295 -55q-178 0 -264 81q-139 -82 -304 -81q-270 0 -270 307zM322 287q0 -88 77 -88q55 0 109 24q-14 51 -14 123v25h-107q-37 0 -51 -19.5t-14 -64.5zM768 614h162v86q0 51 -18.5 74t-61.5 23t-62.5 -22.5t-19.5 -78.5v-82z" />
<glyph unicode="&#xe7;" horiz-adv-x="655" d="M53 350v297q0 178 91.5 274.5t269.5 96.5q119 0 211 -29l-27 -223q-57 14 -131 14q-76 0 -107.5 -35.5t-31.5 -105.5v-281q0 -70 31.5 -105.5t107.5 -35.5q74 0 131 14l27 -223q-80 -27 -179 -28l-12 -76q162 0 162 -140q0 -80 -50 -123.5t-143 -43.5q-76 0 -151 26 l22 119q55 -20 117 -21q55 0 55 46q0 37 -51 36q-20 0 -65 -4l-41 35l28 154q-264 49 -264 362z" />
<glyph unicode="&#xe8;" horiz-adv-x="808" d="M53 340v317q0 168 92.5 264.5t266.5 96.5q190 0 265 -95.5t75 -271.5v-243h-424v-60q0 -82 30.5 -111.5t118.5 -29.5q109 0 234 39l39 -209q-156 -57 -322 -57q-375 0 -375 360zM199 1278l133 184q100 -92 250 -196l-121 -166q-127 76 -262 178zM328 614h172v86 q0 96 -84 97q-88 0 -88 -101v-82z" />
<glyph unicode="&#xe9;" horiz-adv-x="808" d="M53 340v317q0 168 92.5 264.5t266.5 96.5q190 0 265 -95.5t75 -271.5v-243h-424v-60q0 -82 30.5 -111.5t118.5 -29.5q109 0 234 39l39 -209q-156 -57 -322 -57q-375 0 -375 360zM215 1266q150 104 250 196l133 -184q-135 -102 -262 -178zM328 614h172v86q0 96 -84 97 q-88 0 -88 -101v-82z" />
<glyph unicode="&#xea;" horiz-adv-x="808" d="M53 340v317q0 168 92.5 264.5t266.5 96.5q190 0 265 -95.5t75 -271.5v-243h-424v-60q0 -82 30.5 -111.5t118.5 -29.5q109 0 234 39l39 -209q-156 -57 -322 -57q-375 0 -375 360zM162 1241l256 221l256 -221l-105 -141q-53 35 -151 119q-96 -82 -152 -119zM328 614h172v86 q0 96 -84 97q-88 0 -88 -101v-82z" />
<glyph unicode="&#xeb;" horiz-adv-x="808" d="M53 340v317q0 168 92.5 264.5t266.5 96.5q190 0 265 -95.5t75 -271.5v-243h-424v-60q0 -82 30.5 -111.5t118.5 -29.5q109 0 234 39l39 -209q-156 -57 -322 -57q-375 0 -375 360zM156 1143v266h213v-266h-213zM328 614h172v86q0 96 -84 97q-88 0 -88 -101v-82zM459 1143 v266h213v-266h-213z" />
<glyph unicode="&#xec;" d="M8 1278l133 184q100 -92 250 -196l-121 -166q-127 76 -262 178zM82 0v997h274v-997h-274z" />
<glyph unicode="&#xed;" d="M37 1266q150 104 250 196l133 -184q-135 -102 -262 -178zM82 0v997h274v-997h-274z" />
<glyph unicode="&#xee;" d="M-37 1241l256 221l256 -221l-104 -141q-53 35 -152 119q-96 -82 -151 -119zM82 0v997h274v-997h-274z" />
<glyph unicode="&#xef;" d="M-39 1143v266h213v-266h-213zM82 0v997h274v-997h-274zM264 1143v266h213v-266h-213z" />
<glyph unicode="&#xf0;" horiz-adv-x="903" d="M72 340v244q0 326 317 325q102 0 170 -45q-18 143 -98 223l-258 -137l-56 109l201 106q-82 39 -211 58l62 223q252 -20 411 -141l164 88l55 -109l-127 -67q131 -160 132 -398v-465q0 -379 -379 -379q-180 0 -281.5 100.5t-101.5 264.5zM346 307q0 -102 109 -102 q104 0 104 102v350q-45 23 -117 23q-96 0 -96 -92v-281z" />
<glyph unicode="&#xf1;" horiz-adv-x="866" d="M82 0v997h227l27 -75q106 96 244 96q215 0 215 -240v-778h-275v715q0 66 -59 65q-57 0 -105 -37v-743h-274zM147 1229q82 195 199 194q55 0 113 -39q61 -41 80 -41q37 0 67 70l135 -78q-39 -96 -81 -144t-109 -48q-45 0 -117 43q-57 35 -76 35q-8 0 -16 -3.5t-14 -7.5 t-13.5 -13t-10.5 -14l-11 -20q-8 -14 -12 -18z" />
<glyph unicode="&#xf2;" horiz-adv-x="860" d="M53 332v334q0 164 95.5 258t281.5 94t281.5 -94.5t95.5 -257.5v-334q0 -164 -95.5 -258t-281.5 -94t-281.5 94t-95.5 258zM213 1278l133 184q100 -92 250 -196l-121 -166q-127 76 -262 178zM328 307q0 -90 102 -90t102 90v383q0 90 -102 90t-102 -90v-383z" />
<glyph unicode="&#xf3;" horiz-adv-x="860" d="M53 332v334q0 164 95.5 258t281.5 94t281.5 -94.5t95.5 -257.5v-334q0 -164 -95.5 -258t-281.5 -94t-281.5 94t-95.5 258zM248 1266q150 104 250 196l133 -184q-135 -102 -262 -178zM328 307q0 -90 102 -90t102 90v383q0 90 -102 90t-102 -90v-383z" />
<glyph unicode="&#xf4;" horiz-adv-x="860" d="M53 332v334q0 164 95.5 258t281.5 94t281.5 -94.5t95.5 -257.5v-334q0 -164 -95.5 -258t-281.5 -94t-281.5 94t-95.5 258zM174 1241l256 221l256 -221l-104 -141q-53 35 -152 119q-96 -82 -151 -119zM328 307q0 -90 102 -90t102 90v383q0 90 -102 90t-102 -90v-383z" />
<glyph unicode="&#xf5;" horiz-adv-x="860" d="M53 332v334q0 164 95.5 258t281.5 94t281.5 -94.5t95.5 -257.5v-334q0 -164 -95.5 -258t-281.5 -94t-281.5 94t-95.5 258zM143 1229q82 195 199 194q55 0 113 -39q61 -41 80 -41q37 0 67 70l135 -78q-39 -96 -81 -144t-109 -48q-45 0 -117 43q-57 35 -76 35 q-8 0 -16 -3.5t-14.5 -7.5t-13.5 -13t-10 -14l-11 -20q-8 -14 -13 -18zM328 307q0 -90 102 -90t102 90v383q0 90 -102 90t-102 -90v-383z" />
<glyph unicode="&#xf6;" horiz-adv-x="860" d="M53 332v334q0 164 95.5 258t281.5 94t281.5 -94.5t95.5 -257.5v-334q0 -164 -95.5 -258t-281.5 -94t-281.5 94t-95.5 258zM184 1143v266h213v-266h-213zM328 307q0 -90 102 -90t102 90v383q0 90 -102 90t-102 -90v-383zM487 1143v266h213v-266h-213z" />
<glyph unicode="&#xf7;" horiz-adv-x="946" d="M92 586v233h762v-233h-762zM342 219v260h262v-260h-262zM342 926v260h262v-260h-262z" />
<glyph unicode="&#xf8;" horiz-adv-x="860" d="M53 -51l80 139q-80 92 -80 244v334q0 164 95.5 258t281.5 94q125 0 213 -47l74 129l90 -51l-82 -142q82 -88 82 -241v-334q0 -164 -95.5 -258t-281.5 -94q-127 0 -213 45l-74 -127zM328 424l186 324q-27 33 -84 32q-102 0 -102 -90v-266zM346 248q25 -31 84 -31 q102 0 102 90v264z" />
<glyph unicode="&#xf9;" horiz-adv-x="858" d="M72 219v778h274v-714q0 -66 60 -66q51 0 96 37v743h274v-997h-227l-27 76q-100 -96 -235 -96q-215 -1 -215 239zM207 1278l133 184q100 -92 250 -196l-121 -166q-127 76 -262 178z" />
<glyph unicode="&#xfa;" horiz-adv-x="858" d="M72 219v778h274v-714q0 -66 60 -66q51 0 96 37v743h274v-997h-227l-27 76q-100 -96 -235 -96q-215 -1 -215 239zM266 1266q150 104 250 196l133 -184q-135 -102 -262 -178z" />
<glyph unicode="&#xfb;" horiz-adv-x="858" d="M72 219v778h274v-714q0 -66 60 -66q51 0 96 37v743h274v-997h-227l-27 76q-100 -96 -235 -96q-215 -1 -215 239zM178 1241l256 221l256 -221l-104 -141q-53 35 -152 119q-96 -82 -151 -119z" />
<glyph unicode="&#xfc;" horiz-adv-x="858" d="M72 219v778h274v-714q0 -66 60 -66q51 0 96 37v743h274v-997h-227l-27 76q-100 -96 -235 -96q-215 -1 -215 239zM172 1143v266h213v-266h-213zM475 1143v266h213v-266h-213z" />
<glyph unicode="&#xfd;" horiz-adv-x="768" d="M0 997h276l107 -710l115 710h276l-317 -1400h-258l94 403h-80zM219 1266q150 104 250 196l133 -184q-135 -102 -262 -178z" />
<glyph unicode="&#xfe;" horiz-adv-x="876" d="M82 -444v1849l274 41v-504q86 76 203 76q260 0 260 -305v-398q0 -336 -299 -335q-88 0 -164 28v-411zM356 233q37 -16 86 -16q51 0 77 21.5t26 76.5v385q0 80 -72 80q-61 0 -117 -41v-506z" />
<glyph unicode="&#xff;" horiz-adv-x="768" d="M0 997h276l107 -710l115 710h276l-317 -1400h-258l94 403h-80zM133 1143v266h213v-266h-213zM436 1143v266h213v-266h-213z" />
<glyph unicode="&#x152;" horiz-adv-x="1415" d="M72 434v496q0 195 103.5 314.5t334.5 119.5h842v-250h-418v-301h383v-250h-383v-313h420v-250h-844q-231 0 -334.5 119.5t-103.5 314.5zM358 422q0 -90 36 -131t116 -41h137v864h-137q-80 0 -116 -41t-36 -131v-520z" />
<glyph unicode="&#x153;" horiz-adv-x="1294" d="M53 338v321q0 164 90 261.5t267 97.5q158 0 256 -76q78 76 231 76q190 0 265 -95.5t75 -271.5v-243h-430v-60q0 -80 35 -110.5t121 -30.5q119 0 241 41l31 -213q-137 -55 -315 -55q-154 0 -252 77q-98 -78 -258 -77q-178 0 -267.5 96t-89.5 262zM328 311q0 -94 102 -94 t102 94v375q0 94 -102 94t-102 -94v-375zM807 614h178v86q0 96 -86 97q-92 0 -92 -101v-82z" />
<glyph unicode="&#x178;" horiz-adv-x="892" d="M-10 1364h315l141 -555l142 555h315l-313 -862v-502h-287v502zM188 1499v266h213v-266h-213zM492 1499v266h213v-266h-213z" />
<glyph unicode="&#x2c6;" horiz-adv-x="880" d="M184 1241l256 221l256 -221l-104 -141q-53 35 -152 119q-96 -82 -151 -119z" />
<glyph unicode="&#x2dc;" horiz-adv-x="962" d="M184 1229q82 195 199 194q55 0 113 -39q61 -41 79 -41q37 0 68 70l135 -78q-39 -96 -81 -144t-109 -48q-45 0 -117 43q-57 35 -76 35q-8 0 -16 -3.5t-14.5 -7.5t-13.5 -13t-10 -14l-11 -20q-8 -14 -13 -18z" />
<glyph unicode="&#x2013;" horiz-adv-x="929" d="M82 547v237h766v-237h-766z" />
<glyph unicode="&#x2014;" horiz-adv-x="1265" d="M82 547v237h1102v-237h-1102z" />
<glyph unicode="&#x2018;" horiz-adv-x="432" d="M72 791v299l149 294l129 -57l-90 -237h86v-299h-274z" />
<glyph unicode="&#x2019;" horiz-adv-x="432" d="M82 827l90 238h-86v299h274v-299l-149 -295z" />
<glyph unicode="&#x201a;" d="M78 -217l90 217h-86v319h274v-319l-149 -274z" />
<glyph unicode="&#x201c;" horiz-adv-x="808" d="M72 791v299l149 294l129 -57l-90 -237h86v-299h-274zM449 791v299l149 294l129 -57l-90 -237h86v-299h-274z" />
<glyph unicode="&#x201d;" horiz-adv-x="808" d="M82 827l90 238h-86v299h274v-299l-149 -295zM459 827l90 238h-86v299h274v-299l-149 -295z" />
<glyph unicode="&#x201e;" horiz-adv-x="817" d="M78 -217l90 217h-86v319h274v-319l-149 -274zM457 -217l90 217h-86v319h274v-319l-149 -274z" />
<glyph unicode="&#x2022;" horiz-adv-x="712" d="M102 661.5q0 114.5 72 190.5t182.5 76t182 -76t71.5 -190.5t-71.5 -190.5t-182 -76t-182.5 76t-72 190.5z" />
<glyph unicode="&#x2026;" horiz-adv-x="1314" d="M82 0v319h274v-319h-274zM520 0v319h275v-319h-275zM958 0v319h275v-319h-275z" />
<glyph unicode="&#x2039;" horiz-adv-x="657" d="M92 541l232 417l221 -106l-164 -311l164 -312l-221 -106z" />
<glyph unicode="&#x203a;" horiz-adv-x="657" d="M113 229l163 312l-163 311l221 106l231 -417l-231 -418z" />
<glyph unicode="&#x20ac;" horiz-adv-x="909" d="M61 408v204h121v138h-121v204h121v29q0 406 396 406q141 0 266 -35l-31 -230q-92 27 -197 27q-92 0 -125.5 -37t-33.5 -131v-29h299v-204h-299v-138h299v-204h-299v-27q0 -94 33.5 -131t125.5 -37q104 0 197 27l31 -230q-125 -35 -266 -35q-395 0 -396 406v27h-121z" />
<glyph unicode="&#x2122;" horiz-adv-x="913" d="M51 1255v109h332v-109h-104v-297h-123v297h-105zM428 958l12 406h111l94 -223l94 223h111l12 -406h-110l-4 179l-52 -127h-102l-51 127l-4 -179h-111z" />
<glyph unicode="&#xe000;" horiz-adv-x="995" d="M0 995h995v-995h-995v995z" />
<glyph unicode="&#xfb01;" horiz-adv-x="931" d="M16 760v237h95v150q0 162 74.5 230.5t211.5 68.5q82 0 142 -25l-21 -219q-27 6 -59 6q-39 0 -56.5 -17t-17.5 -63v-131h137l-10 -237h-127v-760h-274v760h-95zM575 0v997h275v-997h-275zM575 1116v301h275v-301h-275z" />
<glyph unicode="&#xfb02;" horiz-adv-x="952" d="M16 760v237h95v150q0 299 286 299q86 0 166 -31l-24 -215q-39 8 -80 8q-39 0 -56.5 -17t-17.5 -63v-131h145l-16 -237h-129v-760h-274v760h-95zM596 0v1411l274 35v-1446h-274z" />
<glyph unicode="&#xfb03;" horiz-adv-x="1503" d="M1147 0v997h274v-997h-274zM1147 1116v322h274v-322h-274zM548 760v237h95v150q0 299 286 299q113 0 197 -33l-25 -219q-57 14 -110 14q-39 0 -56.5 -17t-17.5 -63v-131h174l-16 -237h-158v-760h-274v760h-95zM16 760v237h95v150q0 299 286 299q113 0 197 -33l-25 -219 q-57 14 -110 14q-39 0 -56.5 -17t-17.5 -63v-131h174l-16 -237h-158v-760h-274v760h-95z" />
<glyph unicode="&#xfb04;" horiz-adv-x="1503" d="M1147 0v1405l274 41v-1446h-274zM548 760v237h95v150q0 299 286 299q113 0 197 -33l-25 -219q-57 14 -110 14q-39 0 -56.5 -17t-17.5 -63v-131h174l-16 -237h-158v-760h-274v760h-95zM16 760v237h95v150q0 299 286 299q113 0 197 -33l-25 -219q-57 14 -110 14 q-39 0 -56.5 -17t-17.5 -63v-131h174l-16 -237h-158v-760h-274v760h-95z" />
</font>
</defs>
</svg>
