<?xml version="1.0" standalone="no"?>
<!DOCTYPE svg PUBLIC "-//W3C//DTD SVG 1.1//EN" "http://www.w3.org/Graphics/SVG/1.1/DTD/svg11.dtd" >
<svg xmlns="http://www.w3.org/2000/svg">
<metadata>
This is a custom SVG webfont generated by Font Squirrel.
Copyright   : Copyright 2006 Process Type Foundry All rights reserved
Designer    : Eric Olson
Foundry     : Eric Olson
Foundry URL : httpwwwprocesstypefoundrycom
</metadata>
<defs>
<font id="KlavikaCHLightCondensed" horiz-adv-x="774" >
<font-face units-per-em="2048" ascent="1536" descent="-512" />
<missing-glyph horiz-adv-x="378" />
<glyph unicode=" "  horiz-adv-x="378" />
<glyph unicode="&#x09;" horiz-adv-x="378" />
<glyph unicode="&#xa0;" horiz-adv-x="378" />
<glyph unicode="!" horiz-adv-x="380" d="M133 0v176h115v-176h-115zM133 678v686h115v-686l-23 -342h-69z" />
<glyph unicode="&#x22;" horiz-adv-x="630" d="M123 866v498h102v-498h-102zM406 866v498h102v-498h-102z" />
<glyph unicode="#" horiz-adv-x="1052" d="M102 422l4 92h170l19 375h-172l4 92h172l20 383h97l-21 -383h283l20 383h97l-21 -383h166l-4 -92h-166l-18 -375h172l-4 -92h-172l-21 -422h-96l20 422h-282l-21 -422h-96l20 422h-170zM373 514h282l19 375h-283z" />
<glyph unicode="$" horiz-adv-x="782" d="M106 1028q0 299 246 326v200h109v-198q102 -4 182 -31l-14 -100q-98 31 -203 30q-111 0 -158 -48t-47 -177q0 -131 24.5 -169t155.5 -99.5t184.5 -103.5t76 -106.5t22.5 -195.5q0 -313 -252 -346v-200h-108v196q-111 10 -203 47l14 101q119 -45 223 -45q117 0 164 54 t47 181q0 152 -33.5 202t-185.5 116q-156 66 -200 134t-44 232z" />
<glyph unicode="%" horiz-adv-x="1415" d="M113 895v231q0 121 60 189.5t175 68.5t175.5 -68.5t60.5 -189.5v-231q0 -121 -60.5 -189.5t-175.5 -68.5t-175 68.5t-60 189.5zM211 891q0 -86 31.5 -125t105.5 -39t105.5 39t31.5 125v239q0 86 -31.5 125t-105.5 39t-105.5 -38.5t-31.5 -125.5v-239zM434 6l451 1383 l88 -33l-453 -1381zM821 238v231q0 121 60.5 189.5t175 68.5t175 -68.5t60.5 -189.5v-231q0 -121 -60.5 -189.5t-175 -68.5t-175 68.5t-60.5 189.5zM920 233q0 -86 31.5 -124.5t105 -38.5t105.5 38.5t32 124.5v240q0 86 -32 125t-105.5 39t-105 -39t-31.5 -125v-240z" />
<glyph unicode="&#x26;" horiz-adv-x="1069" d="M113 244v96q0 57 12 101t48 86t57.5 62.5t82.5 72.5l43 36l-59 74q-51 63 -70.5 91t-41 79t-21.5 107v75q0 129 81 194.5t210 65.5q281 0 280 -256v-81q-2 -88 -39 -154t-118 -137l-78 -66l237 -299l140 254l88 -51l-162 -287l246 -307h-136l-165 207q-27 -45 -50.5 -78 t-64.5 -71t-97.5 -58t-125.5 -20q-297 0 -297 264zM227 240q0 -162 185 -162q90 0 146 45t110 143l12 25l-260 327l-39 -32q-8 -8 -33.5 -29.5t-32.5 -28.5l-23 -23q-17 -17 -22.5 -25.5l-16.5 -25t-14 -30.5t-6.5 -34.5t-5.5 -43.5v-106zM274 1049q0 -76 66 -156l98 -125 l84 72q102 90 103 209v90q0 61 -38 104t-130 43q-94 0 -138.5 -45t-44.5 -102v-90z" />
<glyph unicode="'" horiz-adv-x="348" d="M123 866v498h102v-498h-102z" />
<glyph unicode="(" horiz-adv-x="573" d="M154 680q0 283 62.5 496t205.5 462l86 -43q-125 -240 -182.5 -450.5t-57.5 -464.5t57.5 -465t182.5 -451l-86 -43q-143 250 -205.5 463t-62.5 496z" />
<glyph unicode=")" horiz-adv-x="573" d="M66 -236q125 240 182 451t57 465t-57.5 465t-181.5 450l86 43q143 -250 205.5 -462.5t62.5 -495.5t-62.5 -496t-205.5 -463z" />
<glyph unicode="*" horiz-adv-x="794" d="M92 1071v72h242l-121 209l63 37l121 -211l123 211l64 -37l-123 -209h241v-72h-241l123 -211l-64 -35l-123 209l-121 -209l-63 35l123 211h-244z" />
<glyph unicode="+" horiz-adv-x="974" d="M123 657v91h315v380h99v-380h315v-91h-315v-381h-99v381h-315z" />
<glyph unicode="," horiz-adv-x="360" d="M100 -190l64 190h-41v176h115v-176l-86 -211z" />
<glyph unicode="-" horiz-adv-x="645" d="M123 614v99h399v-99h-399z" />
<glyph unicode="." horiz-adv-x="360" d="M123 0v176h115v-176h-115z" />
<glyph unicode="/" horiz-adv-x="747" d="M102 -240l433 1624h110l-436 -1624h-107z" />
<glyph unicode="0" horiz-adv-x="929" d="M123 326v712q0 162 84 256.5t258 94.5t258 -94.5t84 -256.5v-712q0 -162 -84 -256.5t-258 -94.5t-258 94.5t-84 256.5zM238 334q0 -133 52 -194.5t175 -61.5t175 61.5t52 194.5v696q0 133 -52 194.5t-175 61.5t-175 -61.5t-52 -194.5v-696z" />
<glyph unicode="1" horiz-adv-x="567" d="M47 1128l277 236h100v-1364h-115v1217l-209 -166z" />
<glyph unicode="2" horiz-adv-x="784" d="M90 0v102l299 445q104 160 134 238.5t30 228.5v51q0 123 -44 172t-167 49q-88 0 -207 -47l-22 102q117 47 245 48q160 0 235 -72t75 -244v-53q0 -168 -32 -259t-138 -245l-285 -414h465v-102h-588z" />
<glyph unicode="3" horiz-adv-x="792" d="M92 12l12 99q106 -33 230 -33q129 0 180 55t51 164v139q0 106 -50 157.5t-159 51.5h-178v103h148q217 0 217 202v142q0 104 -45 149t-148 45q-111 0 -221 -33l-16 103q113 33 243 33q160 0 231.5 -71t71.5 -218v-139q0 -100 -38.5 -164t-137.5 -97q197 -29 197 -262v-145 q0 -145 -90 -231.5t-260 -86.5q-136 0 -238 37z" />
<glyph unicode="4" horiz-adv-x="894" d="M78 369v108l446 887h154v-893h141v-102h-141v-369h-111v369h-489zM188 471h379v772z" />
<glyph unicode="5" horiz-adv-x="817" d="M123 2l12 102q98 -27 217 -26q135 0 193.5 61.5t58.5 177.5v105q0 127 -56 172t-192 45h-215v725h535v-102h-420v-521h131q332 0 332 -309v-119q0 -150 -88 -244t-279 -94q-129 0 -229 27z" />
<glyph unicode="6" horiz-adv-x="894" d="M123 305v656q0 225 94 326.5t301 101.5q121 0 201 -27l-14 -100q-70 25 -166 24q-80 0 -128.5 -10t-91.5 -42t-62 -99.5t-19 -176.5v-262q123 72 266 72q289 0 289 -297v-168q0 -156 -91.5 -242t-248.5 -86q-330 0 -330 330zM238 299q0 -223 215 -223q225 0 225 221v170 q0 104 -48 152.5t-157 48.5q-117 0 -235 -64v-305z" />
<glyph unicode="7" horiz-adv-x="817" d="M102 1262v102h633v-98l-448 -1266h-117l446 1262h-514z" />
<glyph unicode="8" horiz-adv-x="921" d="M119 295v63q0 123 56 201t173 143q-113 72 -157 146t-44 178v57q0 305 313.5 305.5t313.5 -305.5v-57q0 -104 -44 -178t-157 -146q117 -66 173.5 -143.5t56.5 -200.5v-63q0 -319 -342 -319t-342 319zM233 297q0 -121 55.5 -172t172.5 -51t172 51t55 172v61q0 102 -47 161 t-180 132q-133 -74 -180.5 -132t-47.5 -161v-61zM260 1018q0 -92 42 -142.5t159 -127.5q117 78 159 128t42 142v69q0 102 -47.5 152.5t-154 50.5t-153.5 -50t-47 -153v-69z" />
<glyph unicode="9" horiz-adv-x="886" d="M94 893v168q0 156 91 242t249 86q330 0 330 -330v-656q0 -225 -94.5 -326.5t-300.5 -101.5q-121 0 -201 27l14 100q70 -25 166 -24q80 0 128 10t91 42t62.5 99.5t19.5 176.5v262q-123 -72 -266 -72q-289 0 -289 297zM209 897q0 -104 48 -152.5t157 -48.5q117 0 235 64 v305q0 223 -215 223q-225 0 -225 -221v-170z" />
<glyph unicode=":" horiz-adv-x="380" d="M133 0v176h115v-176h-115zM133 676v176h115v-176h-115z" />
<glyph unicode=";" horiz-adv-x="380" d="M111 -190l63 190h-41v176h115v-176l-86 -211zM133 676v176h115v-176h-115z" />
<glyph unicode="&#x3c;" horiz-adv-x="995" d="M133 655v95l686 378l43 -86l-622 -340l622 -340l-43 -86z" />
<glyph unicode="=" horiz-adv-x="1015" d="M143 498v90h729v-90h-729zM143 817v90h729v-90h-729z" />
<glyph unicode="&#x3e;" horiz-adv-x="995" d="M133 362l623 340l-623 340l43 86l686 -378v-95l-686 -379z" />
<glyph unicode="?" horiz-adv-x="731" d="M113 1360q100 29 229 29q152 0 219.5 -68t67.5 -213v-92q0 -129 -28 -191.5t-118 -156.5l-209 -215l-75 79l172 175q88 90 115.5 145t27.5 158v92q0 104 -42 144t-146 40q-98 0 -199 -29zM209 0v176h115v-176h-115z" />
<glyph unicode="@" horiz-adv-x="1273" d="M113 641q0 334 168 541t434 207q227 0 348 -142.5t121 -353.5t-83 -341t-227 -130q-78 0 -137 49q-94 -55 -182 -55q-63 0 -96 42t-23 103l51 291q27 147 183 147q111 0 204 -49l-77 -436q29 -10 69 -10q119 0 170 109.5t51 273.5q0 182 -95 296.5t-279 114.5 q-217 0 -360.5 -183t-143.5 -474q0 -270 137 -424t377 -154q145 0 285 50l18 -84q-137 -53 -319 -54q-272 0 -433 182.5t-161 483.5zM524 573q-12 -74 59.5 -73.5t133.5 37.5l63 358q-49 20 -114 20q-39 0 -62.5 -14t-32.5 -61z" />
<glyph unicode="A" horiz-adv-x="909" d="M45 0l342 1364h135l342 -1364h-112l-88 362h-420l-86 -362h-113zM268 465h371l-184 792z" />
<glyph unicode="B" horiz-adv-x="907" d="M133 0v1364h387q248 0 248 -256v-176q0 -164 -131 -221q188 -33 188 -252v-174q0 -125 -77.5 -205t-219.5 -80h-395zM248 100h272q190 0 191 183v170q0 195 -172 194h-291v-547zM248 748h235q170 0 170 178v190q0 147 -133 148h-272v-516z" />
<glyph unicode="C" d="M113 348v668q0 190 84 281.5t268 91.5q129 0 223 -27l-12 -98q-98 23 -213 22q-129 0 -182.5 -61.5t-53.5 -212.5v-660q0 -152 53.5 -213t182.5 -61q115 0 213 22l12 -98q-94 -27 -223 -27q-184 0 -268 91.5t-84 281.5z" />
<glyph unicode="D" horiz-adv-x="921" d="M133 0v1364h318q190 0 274 -99.5t84 -293.5v-578q0 -195 -84 -294t-274 -99h-318zM248 102h203q129 0 186 70t57 221v578q0 152 -57 221.5t-186 69.5h-203v-1160z" />
<glyph unicode="E" horiz-adv-x="798" d="M133 0v1364h584v-102h-469v-514h432v-103h-432v-543h469v-102h-584z" />
<glyph unicode="F" horiz-adv-x="782" d="M133 0v1364h588v-102h-473v-547h436v-103h-436v-612h-115z" />
<glyph unicode="G" horiz-adv-x="903" d="M113 348v668q0 201 87 287t281 86q141 0 267 -37l-15 -103q-133 37 -252 37q-141 0 -197.5 -59.5t-56.5 -214.5v-660q0 -152 54.5 -214t197.5 -62q115 0 191 20v506h110v-582q-129 -45 -301 -45q-201 0 -283.5 89t-82.5 284z" />
<glyph unicode="H" horiz-adv-x="970" d="M133 0v1364h115v-610h475v610h115v-1364h-115v651h-475v-651h-115z" />
<glyph unicode="I" horiz-adv-x="393" d="M139 0v1364h115v-1364h-115z" />
<glyph unicode="J" horiz-adv-x="380" d="M-16 -358q59 76 83.5 113.5t45 90t20.5 109.5v1409h115v-1419q0 -88 -37 -166t-145 -203z" />
<glyph unicode="K" horiz-adv-x="858" d="M133 0v1364h115v-1364h-115zM276 694l392 670h129l-398 -670l424 -694h-137z" />
<glyph unicode="L" horiz-adv-x="741" d="M133 0v1364h115v-1262h440v-102h-555z" />
<glyph unicode="M" horiz-adv-x="1236" d="M133 0v1364h160l325 -1266l326 1266h160v-1364h-105v1212l-311 -1212h-139l-311 1212v-1212h-105z" />
<glyph unicode="N" horiz-adv-x="1003" d="M133 0v1364h127l502 -1155v1155h108v-1364h-127l-501 1155v-1155h-109z" />
<glyph unicode="O" horiz-adv-x="950" d="M113 360v644q0 385 362.5 385t362.5 -385v-644q0 -385 -362.5 -385t-362.5 385zM227 360q0 -150 57.5 -216t190.5 -66t190.5 66.5t57.5 215.5v644q0 150 -57.5 216t-190.5 66t-190.5 -66.5t-57.5 -215.5v-644z" />
<glyph unicode="P" horiz-adv-x="858" d="M133 0v1364h359q158 0 228.5 -80t70.5 -235v-154q0 -143 -80 -229t-236 -86h-227v-580h-115zM248 682h223q106 0 155.5 50t49.5 163v154q0 117 -43 165t-150 48h-235v-580z" />
<glyph unicode="Q" horiz-adv-x="950" d="M113 360v644q0 385 362.5 385t362.5 -385v-644q0 -317 -244 -372l119 -191l-97 -61l-151 239q-352 6 -352 385zM227 360q0 -150 57.5 -216t190.5 -66t190.5 66.5t57.5 215.5v644q0 150 -57.5 216t-190.5 66t-190.5 -66.5t-57.5 -215.5v-644z" />
<glyph unicode="R" horiz-adv-x="935" d="M133 0v1364h379q158 0 228.5 -80t70.5 -235v-150q0 -111 -52 -190.5t-153 -110.5l268 -598h-124l-254 584h-248v-584h-115zM248 686h244q106 0 155 50t49 163v150q0 117 -43 165t-149 48h-256v-576z" />
<glyph unicode="S" horiz-adv-x="751" d="M74 1038q0 186 83 268.5t246 82.5q127 0 236 -37l-16 -101q-111 35 -220 35q-117 0 -166 -56t-49 -183t29 -168t170 -109q139 -66 194.5 -109t80 -111.5t24.5 -205.5q0 -369 -354 -369q-125 0 -238 45l19 107q125 -47 227 -47q231 0 231 250q0 158 -35.5 212t-187.5 120 q-176 78 -225 151t-49 225z" />
<glyph unicode="T" horiz-adv-x="770" d="M45 1262v102h680v-102h-283v-1262h-114v1262h-283z" />
<glyph unicode="U" horiz-adv-x="966" d="M123 344v1020h115v-1014q0 -143 59 -207.5t186 -64.5t186.5 64.5t59.5 207.5v1014h115v-1020q0 -176 -90 -272.5t-270.5 -96.5t-270.5 96.5t-90 272.5z" />
<glyph unicode="V" horiz-adv-x="823" d="M33 1364h112l267 -1225l266 1225h113l-308 -1364h-143z" />
<glyph unicode="W" horiz-adv-x="1366" d="M41 1364h111l210 -1196l254 1196h134l254 -1196l210 1196h111l-258 -1364h-131l-252 1255l-254 -1255h-131z" />
<glyph unicode="X" horiz-adv-x="839" d="M41 0l319 690l-311 674h119l252 -553l252 553h119l-312 -674l320 -690h-119l-260 571l-260 -571h-119z" />
<glyph unicode="Y" d="M25 1364h120l242 -657l242 657h121l-306 -780v-584h-114v584z" />
<glyph unicode="Z" horiz-adv-x="843" d="M102 0v104l525 1158h-512v102h630v-104l-524 -1158h537v-102h-656z" />
<glyph unicode="[" horiz-adv-x="540" d="M164 -258v1876h305v-102h-190v-1672h190v-102h-305z" />
<glyph unicode="\" horiz-adv-x="747" d="M102 1384h111l432 -1624h-106z" />
<glyph unicode="]" horiz-adv-x="540" d="M72 -156h190v1672h-190v102h305v-1876h-305v102z" />
<glyph unicode="^" horiz-adv-x="819" d="M102 776l250 588h115l250 -588l-94 -35l-213 523l-213 -523z" />
<glyph unicode="_" horiz-adv-x="575" d="M-2 -205h580v-49h-580v49z" />
<glyph unicode="`" horiz-adv-x="710" d="M225 1278l54 84q92 -82 206 -164l-49 -74q-94 60 -211 154z" />
<glyph unicode="a" d="M88 254q0 143 62.5 205.5t185.5 62.5h221v201q0 92 -37 132t-121 40q-113 0 -241 -45l-21 100q125 47 269 47q137 0 201.5 -65.5t64.5 -210.5v-721h-92l-15 80q-127 -100 -250 -100q-227 0 -227 274zM199 254q0 -92 28.5 -134t108.5 -42q109 0 221 98v248h-201 q-86 0 -121.5 -38t-35.5 -132z" />
<glyph unicode="b" horiz-adv-x="817" d="M123 27v1378l115 16v-518q113 94 264 94q225 0 225 -260v-432q0 -326 -319 -325q-160 0 -285 47zM238 104q63 -23 168 -22q115 0 160.5 56.5t45.5 168.5v422q0 92 -32.5 129t-108.5 37q-123 0 -233 -90v-701z" />
<glyph unicode="c" horiz-adv-x="632" d="M94 270v437q0 291 283 290q102 0 190 -24l-14 -96q-80 18 -166 18q-98 0 -138 -47t-40 -152v-415q0 -104 40 -151.5t138 -47.5q86 0 166 18l14 -96q-88 -25 -190 -24q-283 -1 -283 290z" />
<glyph unicode="d" horiz-adv-x="821" d="M94 240v450q0 154 76 230.5t211 76.5q111 0 203 -39v447l114 16v-1421h-98l-10 92q-129 -113 -271 -112q-225 0 -225 260zM209 238q0 -82 28.5 -119t98.5 -37q106 0 248 115v661q-104 37 -193 37q-182 0 -182 -201v-456z" />
<glyph unicode="e" horiz-adv-x="753" d="M94 303v385q0 160 82 234.5t219 74.5q281 0 281 -321v-225h-467v-152q0 -117 49 -168t164 -51q109 0 215 39l22 -96q-106 -43 -249 -43q-316 -1 -316 323zM209 549h356v131q0 111 -34.5 165t-135.5 54q-186 0 -186 -203v-147z" />
<glyph unicode="f" horiz-adv-x="524" d="M51 874v103h133v213q0 236 228 235q76 0 133 -22l-19 -96q-49 16 -108 16q-61 0 -90 -29.5t-29 -105.5v-211h217l-8 -103h-209v-874h-115v874h-133z" />
<glyph unicode="g" horiz-adv-x="772" d="M72 641v12q0 344 301 344q72 0 137 -20h238v-76l-119 -27q45 -82 45 -221v-12q0 -166 -76 -254t-225 -88q-27 0 -39 2q-49 -76 -49 -121q0 -37 15 -52t60 -22l129 -16q121 -16 170.5 -73.5t49.5 -170.5q0 -270 -332 -270q-111 0 -227 31l14 100q106 -29 211 -29 q115 0 167 37t52 125q0 74 -31 103.5t-117 40.5q-10 2 -51 7l-71 9q-82 12 -118 49t-36 113q0 74 74 160q-172 67 -172 319zM182 637q0 -135 47 -187.5t144 -52.5q94 0 142 54.5t48 185.5v20q0 135 -44 188.5t-146 53.5q-104 0 -147.5 -52t-43.5 -190v-20z" />
<glyph unicode="h" horiz-adv-x="833" d="M123 0v1405l115 16v-538q156 115 309 114q82 0 128 -47t46 -139v-811h-115v784q0 111 -90 111q-123 0 -278 -111v-784h-115z" />
<glyph unicode="i" horiz-adv-x="360" d="M123 0v977h115v-977h-115zM123 1169v217h115v-217h-115z" />
<glyph unicode="j" horiz-adv-x="360" d="M-27 -358q59 76 84 113.5t45.5 90t20.5 109.5v1022h115v-1032q0 -88 -37 -166t-146 -203zM123 1169v217h115v-217h-115z" />
<glyph unicode="k" horiz-adv-x="724" d="M123 0v1405l115 16v-1421h-115zM262 506l295 471h131l-299 -471l322 -506h-133z" />
<glyph unicode="l" horiz-adv-x="360" d="M123 0v1405l115 16v-1421h-115z" />
<glyph unicode="m" horiz-adv-x="1296" d="M123 0v977h98l10 -98q141 119 306 118q135 0 165 -118q147 119 308 118q82 0 128 -47t46 -139v-811h-115v784q0 111 -90 111q-61 0 -136 -33t-132 -78v-784h-115v784q0 111 -90 111q-61 0 -136 -33t-132 -78v-784h-115z" />
<glyph unicode="n" horiz-adv-x="833" d="M123 0v977h98l10 -98q156 119 316 118q82 0 128 -47t46 -139v-811h-115v784q0 111 -90 111q-123 0 -278 -111v-784h-115z" />
<glyph unicode="o" horiz-adv-x="819" d="M94 291v395q0 152 84 231.5t231.5 79.5t231.5 -79.5t84 -231.5v-395q0 -152 -84 -231.5t-231.5 -79.5t-231.5 79.5t-84 231.5zM209 291q0 -209 200.5 -209t200.5 209v395q0 209 -200.5 209t-200.5 -209v-395z" />
<glyph unicode="p" horiz-adv-x="825" d="M123 -420v1397h98l10 -92q129 113 271 112q225 0 225 -260v-450q0 -154 -76 -230.5t-211 -76.5q-111 0 -202 38v-421zM238 119q104 -37 192 -37q182 0 182 201v456q0 82 -28.5 119t-98.5 37q-106 0 -247 -115v-661z" />
<glyph unicode="q" horiz-adv-x="829" d="M102 240v432q0 326 320 325q160 0 285 -47v-1353l-115 -17v494q-123 -94 -264 -94q-226 0 -226 260zM217 248q0 -92 33 -129t108 -37q123 0 234 90v700q-63 23 -168 23q-115 0 -161 -56.5t-46 -168.5v-422z" />
<glyph unicode="r" horiz-adv-x="477" d="M123 0v977h100l6 -115q84 90 228 131l10 -110q-121 -41 -229 -117v-766h-115z" />
<glyph unicode="s" horiz-adv-x="675" d="M92 741q0 256 275 256q119 0 198 -32l-14 -99q-92 29 -182 29q-86 0 -124 -36t-38 -116q0 -82 25.5 -111.5t140.5 -76.5q150 -61 193.5 -112.5t43.5 -184.5q0 -135 -76.5 -206.5t-214.5 -71.5q-109 0 -208 40l16 105q92 -43 188.5 -43t138.5 41t42 125q0 92 -28 126 t-144 79q-141 55 -186.5 109t-45.5 179z" />
<glyph unicode="t" horiz-adv-x="563" d="M41 874v103h137v256l117 14v-270h219l-6 -103h-213v-710q0 -82 80 -82q57 0 123 18l10 -96q-66 -25 -141 -24q-188 0 -189 192v702h-137z" />
<glyph unicode="u" horiz-adv-x="825" d="M113 166v811h114v-784q0 -111 90 -111q115 0 271 111v784h114v-977h-98l-10 98q-156 -119 -307 -118q-82 0 -128 47t-46 139z" />
<glyph unicode="v" horiz-adv-x="729" d="M31 977h116l218 -875l217 875h116l-260 -977h-147z" />
<glyph unicode="w" horiz-adv-x="1093" d="M37 977h115l120 -819l211 819h127l211 -819l121 819h115l-170 -977h-121l-219 874l-219 -874h-121z" />
<glyph unicode="x" horiz-adv-x="696" d="M31 0l260 492l-256 485h121l192 -377l193 377h121l-259 -485l263 -492h-121l-197 383l-196 -383h-121z" />
<glyph unicode="y" horiz-adv-x="729" d="M31 977h116l218 -875l217 875h116l-260 -977l-104 -403h-111l109 403h-41z" />
<glyph unicode="z" horiz-adv-x="710" d="M94 0v98l410 781h-400v98h519v-98l-408 -781h418v-98h-539z" />
<glyph unicode="{" horiz-adv-x="565" d="M92 629v102h33q49 0 69.5 19.5t20.5 64.5v608q0 104 44 149.5t138 45.5h103v-102h-103q-37 0 -52 -19.5t-15 -62.5v-611q0 -131 -129 -143q129 -6 129 -143v-611q0 -43 15 -62.5t52 -19.5h103v-102h-103q-94 0 -138 45t-44 150v608q0 45 -20.5 64.5t-69.5 19.5h-33z" />
<glyph unicode="|" horiz-adv-x="512" d="M205 -258v1876h102v-1876h-102z" />
<glyph unicode="}" horiz-adv-x="565" d="M66 -156h102q37 0 52.5 19.5t15.5 62.5v611q0 137 129 143q-129 12 -129 143v611q0 43 -15.5 62.5t-52.5 19.5h-102v102h102q94 0 138 -45t44 -150v-608q0 -45 20.5 -64.5t69.5 -19.5h33v-102h-33q-49 0 -69.5 -19.5t-20.5 -64.5v-608q0 -104 -44 -149.5t-138 -45.5h-102 v102z" />
<glyph unicode="~" horiz-adv-x="878" d="M123 637q14 127 56 186.5t126 59.5q31 0 58.5 -11.5t46 -26t53.5 -46.5q84 -80 119 -80q45 0 64.5 38t41.5 132l78 -27q-23 -115 -63.5 -175t-120.5 -60q-61 0 -162 90q-6 6 -22 19l-21 19l-18 14q-11 9 -18 12t-17.5 6.5t-18.5 3.5q-49 0 -70.5 -42t-33.5 -131z" />
<glyph unicode="&#xa1;" horiz-adv-x="401" d="M143 283l23 342h70l22 -342v-686h-115v686zM143 801v176h115v-176h-115z" />
<glyph unicode="&#xa2;" horiz-adv-x="735" d="M123 467v430q0 258 237 291v176h107v-174q82 -4 156 -27l-15 -96q-80 20 -182 20q-100 0 -144 -46t-44 -152v-414q0 -106 44 -152.5t144 -46.5q102 0 182 21l15 -96q-74 -23 -156 -27v-174h-107v176q-237 33 -237 291z" />
<glyph unicode="&#xa3;" horiz-adv-x="864" d="M102 0v102q90 147 129 256t48 254h-170v103h174q2 25 2 82v258q0 176 71.5 255t218.5 79q109 0 187 -29l-17 -98q-84 25 -161 24q-96 0 -140.5 -53t-44.5 -180v-256q0 -55 -2 -82h320l-6 -103h-320q-25 -276 -172 -510h520v-102h-637z" />
<glyph unicode="&#xa4;" horiz-adv-x="987" d="M113 209l129 129q-49 76 -49 199v292q0 123 49 197l-129 131l71 72l131 -131q70 43 178.5 43t178.5 -43l131 131l71 -72l-131 -131q51 -76 52 -197v-292q0 -119 -52 -199l131 -129l-71 -72l-131 131q-70 -43 -178.5 -43t-178.5 43l-131 -131zM303 532q0 -117 49 -162.5 t141.5 -45.5t141.5 46t49 162v302q0 117 -49 162.5t-141.5 45.5t-141.5 -46t-49 -162v-302z" />
<glyph unicode="&#xa5;" horiz-adv-x="811" d="M82 1364h121l203 -657l202 657h121l-192 -563h168v-99h-201l-41 -118v-84h242v-99h-242v-401h-115v401h-242v99h242v84l-41 118h-201v99h166z" />
<glyph unicode="&#xa6;" horiz-adv-x="512" d="M205 -258v754h102v-754h-102zM205 864v754h102v-754h-102z" />
<glyph unicode="&#xa7;" horiz-adv-x="968" d="M133 1145q0 244 252 244q113 0 207 -41l-19 -97q-88 37 -184 37q-80 0 -111.5 -35.5t-31.5 -115.5q0 -434 221 -1102l-96 -35q-238 678 -238 1145zM408 -342l18 96q88 -37 184 -37q80 0 112 36t32 116q0 434 -222 1102l97 35q238 -678 237 -1145q0 -244 -252 -244 q-112 0 -206 41z" />
<glyph unicode="&#xa8;" horiz-adv-x="819" d="M225 1176v141h111v-141h-111zM483 1176v141h111v-141h-111z" />
<glyph unicode="&#xa9;" horiz-adv-x="1630" d="M113 682q0 303 188 503.5t514 200.5t514.5 -200.5t188.5 -503.5q0 -301 -188.5 -501.5t-514.5 -200.5t-514 200.5t-188 501.5zM182 682q0 -276 170 -457.5t463 -181.5t463 181.5t170 457.5t-170 458.5t-463 182.5t-463 -182.5t-170 -458.5zM586 555v262q0 225 229 225 q94 0 189 -24l-15 -94q-82 20 -158 20q-78 0 -109.5 -28.5t-31.5 -100.5v-258q0 -72 32 -100.5t109 -28.5q76 0 158 21l15 -95q-94 -25 -189 -24q-229 0 -229 225z" />
<glyph unicode="&#xaa;" horiz-adv-x="684" d="M143 922q0 94 43 134t131 40h142v106q0 61 -23.5 86t-81.5 25q-72 0 -151 -27l-15 72q84 31 174 31q92 0 135.5 -45.5t43.5 -141.5v-444h-68l-10 49q-78 -63 -172 -64q-148 1 -148 179zM225 922q0 -57 18.5 -82t65.5 -25q74 0 150 62v147h-129q-57 0 -81 -21.5t-24 -80.5 z" />
<glyph unicode="&#xab;" horiz-adv-x="946" d="M133 541l232 417l94 -47l-211 -370l211 -371l-94 -47zM467 541l231 417l95 -47l-211 -370l211 -371l-95 -47z" />
<glyph unicode="&#xac;" horiz-adv-x="1005" d="M133 850v90h729v-471h-98v381h-631z" />
<glyph unicode="&#xad;" horiz-adv-x="645" d="M123 614v99h399v-99h-399z" />
<glyph unicode="&#xae;" horiz-adv-x="964" d="M113 1054.5q0 159.5 98 265t272 105.5t271.5 -105.5t97.5 -265t-97.5 -265t-271.5 -105.5t-272 105.5t-98 265zM160 1055q0 -137 83 -232.5t240.5 -95.5t239.5 95.5t82 232.5t-82 232t-239.5 95t-240.5 -95t-83 -232zM369 893v340h155q88 0 88 -88v-51q0 -57 -49 -78 l92 -123h-73l-80 113h-74v-113h-59zM428 1055h80q45 0 45 43v43q0 43 -45 43h-80v-129z" />
<glyph unicode="&#xaf;" horiz-adv-x="825" d="M225 1200v96h375v-96h-375z" />
<glyph unicode="&#xb0;" horiz-adv-x="671" d="M123 1173.5q0 92.5 57.5 154t155.5 61.5t155.5 -61.5t57.5 -153.5q0 -90 -57.5 -151.5t-155.5 -61.5q-100 0 -156.5 60t-56.5 152.5zM201 1173.5q0 -63.5 34.5 -103.5t100 -40t100.5 40t35 103.5t-35 104.5t-100.5 41t-100 -41t-34.5 -104.5z" />
<glyph unicode="&#xb1;" horiz-adv-x="1036" d="M154 0v90h729v-90h-729zM154 657v91h315v380h98v-380h316v-91h-316v-381h-98v381h-315z" />
<glyph unicode="&#xb2;" horiz-adv-x="755" d="M164 543v80l207 241q51 61 70.5 88t37 70t17.5 92v60q0 66 -26 93t-91 27q-84 0 -170 -30l-14 86q94 35 192 34q109 0 157 -48t48 -160v-43q0 -100 -21.5 -154.5t-89.5 -130.5q-66 -76 -200 -215h303v-90h-420z" />
<glyph unicode="&#xb3;" horiz-adv-x="718" d="M164 547l10 84q74 -20 154 -21q72 0 101.5 29t29.5 88v74q0 61 -24.5 86.5t-88.5 25.5h-129v88h125q104 0 104 99v86q0 66 -25.5 88t-92.5 22q-61 0 -150 -24l-8 86q86 27 176 26q104 0 150.5 -43t46.5 -141v-84q0 -125 -99 -155q66 -14 88.5 -51.5t22.5 -114.5v-66 q0 -207 -225 -207q-88 0 -166 25z" />
<glyph unicode="&#xb4;" horiz-adv-x="710" d="M225 1198q115 82 207 164l53 -84q-117 -94 -211 -154z" />
<glyph unicode="&#xb5;" horiz-adv-x="825" d="M113 -420v1397h114v-784q0 -111 90 -111q115 0 271 111v784h114v-977h-98l-10 98q-156 -119 -307 -118q-35 0 -60 8v-391z" />
<glyph unicode="&#xb6;" horiz-adv-x="892" d="M123 944.5q0 190.5 112.5 303t272.5 116.5v-840q-160 4 -272.5 117t-112.5 303.5zM469 -358l51 72l44 63q11 16 29.5 47t25 47t11.5 38.5t5 45.5v1409h115v-1405q0 -88 -33 -151.5t-162 -231.5z" />
<glyph unicode="&#xb7;" horiz-adv-x="360" d="M123 573v177h115v-177h-115z" />
<glyph unicode="&#xb8;" horiz-adv-x="722" d="M225 -385l11 76q43 -16 88 -17q80 0 79 68q0 37 -18 54.5t-61 17.5h-70l25 204h81l-12 -133h14q135 0 136 -135q0 -68 -41 -110.5t-123 -42.5q-60 0 -109 18z" />
<glyph unicode="&#xb9;" horiz-adv-x="569" d="M123 1214l188 150h74v-821h-94v692l-127 -86z" />
<glyph unicode="&#xba;" horiz-adv-x="667" d="M133 942v248q0 96 53.5 147.5t147.5 51.5t147.5 -51.5t53.5 -147.5v-248q0 -96 -53.5 -147.5t-147.5 -51.5t-147.5 51.5t-53.5 147.5zM215 950q0 -133 119 -133t119 133v232q0 133 -119 133t-119 -133v-232z" />
<glyph unicode="&#xbb;" horiz-adv-x="946" d="M154 170l211 371l-211 370l94 47l231 -417l-231 -418zM487 170l211 371l-211 370l95 47l231 -417l-231 -418z" />
<glyph unicode="&#xbc;" horiz-adv-x="1429" d="M143 1214l189 150h74v-821h-95v692l-127 -86zM379 -59l469 1474l84 -31l-469 -1474zM774 201v82l279 538h112v-536h101v-84h-101v-201h-86v201h-305zM862 285h217v426z" />
<glyph unicode="&#xbd;" horiz-adv-x="1454" d="M143 1214l189 150h74v-821h-95v692l-127 -86zM379 -59l469 1474l84 -31l-469 -1474zM852 0v80l207 242q51 61 70.5 87.5t37 69.5t17.5 92v60q0 66 -25.5 93.5t-91.5 27.5q-84 0 -170 -31l-14 86q94 35 192 35q109 0 157 -48.5t48 -160.5v-43q0 -100 -21.5 -154.5 t-89.5 -130.5q-66 -76 -200 -215h303v-90h-420z" />
<glyph unicode="&#xbe;" horiz-adv-x="1517" d="M164 547l10 84q74 -20 154 -21q72 0 101.5 29t29.5 88v74q0 61 -24.5 86.5t-88.5 25.5h-129v88h125q104 0 104 99v86q0 66 -25.5 88t-92.5 22q-61 0 -150 -24l-8 86q86 27 176 26q104 0 150.5 -43t46.5 -141v-84q0 -125 -99 -155q66 -14 88.5 -51.5t22.5 -114.5v-66 q0 -207 -225 -207q-88 0 -166 25zM467 -59l469 1474l84 -31l-469 -1474zM862 201v82l279 538h112v-536h101v-84h-101v-201h-86v201h-305zM950 285h217v426z" />
<glyph unicode="&#xbf;" horiz-adv-x="761" d="M123 -51q0 129 27.5 191.5t117.5 156.5l209 215l76 -80l-172 -174q-88 -90 -115.5 -145.5t-27.5 -157.5v-92q0 -104 42 -144.5t146 -40.5q98 0 199 29l14 -102q-100 -29 -229 -29q-152 0 -219.5 67.5t-67.5 213.5v92zM428 801v176h115v-176h-115z" />
<glyph unicode="&#xc0;" horiz-adv-x="909" d="M45 0l342 1364h135l342 -1364h-112l-88 362h-420l-86 -362h-113zM268 465h371l-184 792zM276 1618l54 84q88 -78 196 -156l-49 -73q-95 59 -201 145z" />
<glyph unicode="&#xc1;" horiz-adv-x="909" d="M45 0l342 1364h135l342 -1364h-112l-88 362h-420l-86 -362h-113zM268 465h371l-184 792zM375 1546q109 78 196 156l54 -84q-106 -86 -201 -145z" />
<glyph unicode="&#xc2;" horiz-adv-x="909" d="M45 0l342 1364h135l342 -1364h-112l-88 362h-420l-86 -362h-113zM264 1538l191 164l190 -164l-49 -65q-86 63 -141 108q-55 -45 -142 -108zM268 465h371l-184 792z" />
<glyph unicode="&#xc3;" horiz-adv-x="909" d="M45 0l342 1364h135l342 -1364h-112l-88 362h-420l-86 -362h-113zM242 1567q39 59 67.5 82.5t67.5 23.5q49 0 102 -37t78 -37q27 0 66 52l61 -47q-66 -98 -123 -99q-49 0 -102 35q-55 37 -78 37q-20 0 -34.5 -11.5t-41.5 -45.5zM268 465h371l-184 792z" />
<glyph unicode="&#xc4;" horiz-adv-x="909" d="M45 0l342 1364h135l342 -1364h-112l-88 362h-420l-86 -362h-113zM266 1516v141h111v-141h-111zM268 465h371l-184 792zM535 1516v141h110v-141h-110z" />
<glyph unicode="&#xc5;" horiz-adv-x="909" d="M45 0l332 1329q-39 33 -39 90q0 49 30.5 82t86 33t86 -33t30.5 -82q0 -59 -41 -90l334 -1329h-112l-88 362h-420l-86 -362h-113zM268 465h371l-184 772zM403 1419q0 -55 51.5 -55t51.5 55q0 57 -51.5 57t-51.5 -57z" />
<glyph unicode="&#xc6;" horiz-adv-x="1234" d="M45 0l342 1364h766v-102h-606l129 -514h440v-103h-414l136 -543h315v-102h-401l-88 362h-420l-86 -362h-113zM268 465h371l-184 784z" />
<glyph unicode="&#xc7;" d="M113 348v668q0 190 84 281.5t268 91.5q129 0 223 -27l-12 -98q-98 23 -213 22q-129 0 -182.5 -61.5t-53.5 -212.5v-660q0 -152 53.5 -213t182.5 -61q115 0 213 22l12 -98q-90 -23 -213 -27l-8 -90h14q135 0 135 -135q0 -68 -40.5 -110.5t-122.5 -42.5q-59 0 -109 18 l10 76q43 -16 88 -17q80 0 80 68q0 37 -18.5 54.5t-61.5 17.5h-69l18 166q-145 16 -211.5 106t-66.5 262z" />
<glyph unicode="&#xc8;" horiz-adv-x="798" d="M133 0v1364h584v-102h-469v-514h432v-103h-432v-543h469v-102h-584zM279 1618l53 84q88 -78 196 -156l-49 -73q-94 59 -200 145z" />
<glyph unicode="&#xc9;" horiz-adv-x="798" d="M133 0v1364h584v-102h-469v-514h432v-103h-432v-543h469v-102h-584zM309 1546q109 78 197 156l53 -84q-106 -86 -201 -145z" />
<glyph unicode="&#xca;" horiz-adv-x="798" d="M133 0v1364h584v-102h-469v-514h432v-103h-432v-543h469v-102h-584zM242 1538l190 164l191 -164l-50 -65q-86 63 -141 108q-55 -45 -141 -108z" />
<glyph unicode="&#xcb;" horiz-adv-x="798" d="M133 0v1364h584v-102h-469v-514h432v-103h-432v-543h469v-102h-584zM238 1516v141h110v-141h-110zM506 1516v141h110v-141h-110z" />
<glyph unicode="&#xcc;" horiz-adv-x="393" d="M33 1618l53 84q88 -78 197 -156l-50 -73q-94 59 -200 145zM139 0v1364h115v-1364h-115z" />
<glyph unicode="&#xcd;" horiz-adv-x="393" d="M111 1546q109 78 196 156l53 -84q-106 -86 -200 -145zM139 0v1364h115v-1364h-115z" />
<glyph unicode="&#xce;" horiz-adv-x="393" d="M6 1538l191 164l190 -164l-49 -65q-86 63 -141 108q-55 -45 -142 -108zM139 0v1364h115v-1364h-115z" />
<glyph unicode="&#xcf;" horiz-adv-x="393" d="M8 1516v141h111v-141h-111zM139 0v1364h115v-1364h-115zM276 1516v141h111v-141h-111z" />
<glyph unicode="&#xd0;" horiz-adv-x="966" d="M82 631v102h96v631h318q190 0 274 -99.5t84 -293.5v-578q0 -195 -84 -294t-274 -99h-318v631h-96zM293 102h203q129 0 186 70t57 221v578q0 152 -57 221.5t-186 69.5h-203v-529h199v-102h-199v-529z" />
<glyph unicode="&#xd1;" horiz-adv-x="1003" d="M133 0v1364h127l502 -1155v1155h108v-1364h-127l-501 1155v-1155h-109zM287 1567q39 59 67.5 82.5t67.5 23.5q49 0 102.5 -37t77.5 -37q27 0 66 52l61 -47q-66 -98 -123 -99q-49 0 -102 35q-55 37 -78 37q-20 0 -34.5 -11.5t-41.5 -45.5z" />
<glyph unicode="&#xd2;" horiz-adv-x="950" d="M113 360v644q0 385 362.5 385t362.5 -385v-644q0 -385 -362.5 -385t-362.5 385zM227 360q0 -150 57.5 -216t190.5 -66t190.5 66.5t57.5 215.5v644q0 150 -57.5 216t-190.5 66t-190.5 -66.5t-57.5 -215.5v-644zM326 1618l53 84q88 -78 196 -156l-49 -73q-94 59 -200 145z " />
<glyph unicode="&#xd3;" horiz-adv-x="950" d="M113 360v644q0 385 362.5 385t362.5 -385v-644q0 -385 -362.5 -385t-362.5 385zM227 360q0 -150 57.5 -216t190.5 -66t190.5 66.5t57.5 215.5v644q0 150 -57.5 216t-190.5 66t-190.5 -66.5t-57.5 -215.5v-644zM350 1546q109 78 197 156l53 -84q-106 -86 -201 -145z" />
<glyph unicode="&#xd4;" horiz-adv-x="950" d="M113 360v644q0 385 362.5 385t362.5 -385v-644q0 -385 -362.5 -385t-362.5 385zM227 360q0 -150 57.5 -216t190.5 -66t190.5 66.5t57.5 215.5v644q0 150 -57.5 216t-190.5 66t-190.5 -66.5t-57.5 -215.5v-644zM285 1538l190 164l191 -164l-50 -65q-86 63 -141 108 q-55 -45 -141 -108z" />
<glyph unicode="&#xd5;" horiz-adv-x="950" d="M113 360v644q0 385 362.5 385t362.5 -385v-644q0 -385 -362.5 -385t-362.5 385zM227 360q0 -150 57.5 -216t190.5 -66t190.5 66.5t57.5 215.5v644q0 150 -57.5 216t-190.5 66t-190.5 -66.5t-57.5 -215.5v-644zM262 1567q39 59 67.5 82.5t67.5 23.5q49 0 102.5 -37 t78.5 -37q27 0 65 52l62 -47q-66 -98 -123 -99q-49 0 -103 35q-55 37 -78 37q-20 0 -34.5 -11.5t-40.5 -45.5z" />
<glyph unicode="&#xd6;" horiz-adv-x="950" d="M113 360v644q0 385 362.5 385t362.5 -385v-644q0 -385 -362.5 -385t-362.5 385zM227 360q0 -150 57.5 -216t190.5 -66t190.5 66.5t57.5 215.5v644q0 150 -57.5 216t-190.5 66t-190.5 -66.5t-57.5 -215.5v-644zM287 1516v141h110v-141h-110zM555 1516v141h111v-141h-111z " />
<glyph unicode="&#xd7;" horiz-adv-x="983" d="M143 418l285 284l-285 285l64 64l285 -285l284 285l64 -64l-285 -285l285 -284l-64 -64l-284 285l-285 -285z" />
<glyph unicode="&#xd8;" horiz-adv-x="950" d="M113 -92l73 182q-74 94 -73 270v644q0 385 362 385q133 0 223 -58l64 156l76 -31l-76 -184q76 -96 76 -268v-644q0 -385 -363 -385q-135 0 -223 56l-64 -154zM227 360q0 -84 15 -135l413 1004q-57 57 -180 57q-133 0 -190.5 -66.5t-57.5 -215.5v-644zM293 133 q57 -55 182 -55q133 0 190.5 66.5t57.5 215.5v644q0 74 -16 135z" />
<glyph unicode="&#xd9;" horiz-adv-x="966" d="M123 344v1020h115v-1014q0 -143 59 -207.5t186 -64.5t186.5 64.5t59.5 207.5v1014h115v-1020q0 -176 -90 -272.5t-270.5 -96.5t-270.5 96.5t-90 272.5zM336 1618l53 84q88 -78 197 -156l-49 -73q-95 59 -201 145z" />
<glyph unicode="&#xda;" horiz-adv-x="966" d="M123 344v1020h115v-1014q0 -143 59 -207.5t186 -64.5t186.5 64.5t59.5 207.5v1014h115v-1020q0 -176 -90 -272.5t-270.5 -96.5t-270.5 96.5t-90 272.5zM381 1546q109 78 197 156l53 -84q-106 -86 -201 -145z" />
<glyph unicode="&#xdb;" horiz-adv-x="966" d="M123 344v1020h115v-1014q0 -143 59 -207.5t186 -64.5t186.5 64.5t59.5 207.5v1014h115v-1020q0 -176 -90 -272.5t-270.5 -96.5t-270.5 96.5t-90 272.5zM293 1538l190 164l191 -164l-49 -65q-86 63 -142 108q-55 -45 -141 -108z" />
<glyph unicode="&#xdc;" horiz-adv-x="966" d="M123 344v1020h115v-1014q0 -143 59 -207.5t186 -64.5t186.5 64.5t59.5 207.5v1014h115v-1020q0 -176 -90 -272.5t-270.5 -96.5t-270.5 96.5t-90 272.5zM295 1516v141h111v-141h-111zM563 1516v141h111v-141h-111z" />
<glyph unicode="&#xdd;" d="M25 1364h120l242 -657l242 657h121l-306 -780v-584h-114v584zM295 1546q109 78 197 156l53 -84q-106 -86 -201 -145z" />
<glyph unicode="&#xde;" horiz-adv-x="858" d="M133 0v1364h115v-285h244q158 0 228.5 -79.5t70.5 -235.5v-154q0 -143 -80 -229t-236 -86h-227v-295h-115zM248 397h223q106 0 155.5 50.5t49.5 162.5v154q0 117 -43 165t-150 48h-235v-580z" />
<glyph unicode="&#xdf;" horiz-adv-x="919" d="M123 0v1085q0 168 88 245t229 77q129 0 205 -68.5t76 -201.5q0 -119 -74 -273q-8 -18 -26.5 -55t-23.5 -48l-14 -33q-9 -22 -11.5 -36t-2.5 -28q0 -41 20.5 -66t110.5 -96q102 -84 130 -130t28 -141q0 -109 -57.5 -175t-179.5 -66q-94 0 -170 24l18 101q68 -23 141 -23 q133 0 133 133q0 76 -22.5 108t-116.5 99q-92 68 -120.5 115t-28.5 115q0 29 8 59.5t15 48.5t28.5 60t30.5 63q45 96 57 139t12 101q0 88 -45 132t-125 44q-92 0 -145 -55.5t-53 -166.5v-1087h-115z" />
<glyph unicode="&#xe0;" d="M88 254q0 143 62.5 205.5t185.5 62.5h221v201q0 92 -37 132t-121 40q-113 0 -241 -45l-21 100q125 47 269 47q137 0 201.5 -65.5t64.5 -210.5v-721h-92l-15 80q-127 -100 -250 -100q-227 0 -227 274zM199 254q0 -92 28.5 -134t108.5 -42q109 0 221 98v248h-201 q-86 0 -121.5 -38t-35.5 -132zM250 1278l53 84q92 -82 207 -164l-49 -74q-94 60 -211 154z" />
<glyph unicode="&#xe1;" d="M88 254q0 143 62.5 205.5t185.5 62.5h221v201q0 92 -37 132t-121 40q-113 0 -241 -45l-21 100q125 47 269 47q137 0 201.5 -65.5t64.5 -210.5v-721h-92l-15 80q-127 -100 -250 -100q-227 0 -227 274zM199 254q0 -92 28.5 -134t108.5 -42q109 0 221 98v248h-201 q-86 0 -121.5 -38t-35.5 -132zM276 1198q115 82 207 164l54 -84q-117 -94 -211 -154z" />
<glyph unicode="&#xe2;" d="M88 254q0 143 62.5 205.5t185.5 62.5h221v201q0 92 -37 132t-121 40q-113 0 -241 -45l-21 100q125 47 269 47q137 0 201.5 -65.5t64.5 -210.5v-721h-92l-15 80q-127 -100 -250 -100q-227 0 -227 274zM199 254q0 -92 28.5 -134t108.5 -42q109 0 221 98v248h-201 q-86 0 -121.5 -38t-35.5 -132zM223 1190q66 57 183 172q117 -115 182 -172l-49 -66l-133 117l-134 -117z" />
<glyph unicode="&#xe3;" d="M88 254q0 143 62.5 205.5t185.5 62.5h221v201q0 92 -37 132t-121 40q-113 0 -241 -45l-21 100q125 47 269 47q137 0 201.5 -65.5t64.5 -210.5v-721h-92l-15 80q-127 -100 -250 -100q-227 0 -227 274zM190 1225q41 61 67 82.5t69 21.5q45 0 94 -35q55 -39 74 -39 q29 0 67 52l60 -45q-39 -57 -65 -78t-60 -21q-41 0 -88 31q-8 6 -23 15l-20 14q-6 4 -15.5 8t-19.5 4q-20 0 -34.5 -11.5t-41.5 -45.5zM199 254q0 -92 28.5 -134t108.5 -42q109 0 221 98v248h-201q-86 0 -121.5 -38t-35.5 -132z" />
<glyph unicode="&#xe4;" d="M88 254q0 143 62.5 205.5t185.5 62.5h221v201q0 92 -37 132t-121 40q-113 0 -241 -45l-21 100q125 47 269 47q137 0 201.5 -65.5t64.5 -210.5v-721h-92l-15 80q-127 -100 -250 -100q-227 0 -227 274zM199 254q0 -92 28.5 -134t108.5 -42q109 0 221 98v248h-201 q-86 0 -121.5 -38t-35.5 -132zM225 1176v141h111v-141h-111zM483 1176v141h111v-141h-111z" />
<glyph unicode="&#xe5;" d="M88 254q0 143 62.5 205.5t185.5 62.5h221v201q0 92 -37 132t-121 40q-113 0 -241 -45l-21 100q125 47 269 47q137 0 201.5 -65.5t64.5 -210.5v-721h-92l-15 80q-127 -100 -250 -100q-227 0 -227 274zM199 254q0 -92 28.5 -134t108.5 -42q109 0 221 98v248h-201 q-86 0 -121.5 -38t-35.5 -132zM289 1257q0 53 31.5 86t89 33t89 -32.5t31.5 -86.5q0 -51 -31.5 -84.5t-89 -33.5t-89 33.5t-31.5 84.5zM354 1257q0 -59 55.5 -59t55.5 59q0 61 -55.5 61t-55.5 -61z" />
<glyph unicode="&#xe6;" horiz-adv-x="1216" d="M88 262q0 260 238 260h231v203q0 94 -37 132t-121 38q-106 0 -225 -41l-22 100q117 43 247 43q86 0 135.5 -23.5t79.5 -80.5q74 104 244 104q281 0 281 -321v-219h-467v-181q0 -102 49 -149t162 -47q111 0 215 37l22 -94q-109 -43 -248 -43q-180 0 -258 104 q-141 -104 -297 -104q-115 0 -172 75.5t-57 206.5zM199 262q0 -94 30.5 -139t112.5 -45q119 0 233 86q-18 61 -18 139v121h-209q-80 0 -114.5 -36t-34.5 -126zM672 555h356v125q0 111 -35 165t-135 54q-178 0 -186 -182v-162z" />
<glyph unicode="&#xe7;" horiz-adv-x="638" d="M94 270v437q0 291 283 290q102 0 190 -24l-14 -96q-80 18 -166 18q-98 0 -138 -47t-40 -152v-415q0 -104 40 -151.5t138 -47.5q86 0 166 18l14 -96q-84 -23 -172 -24l-8 -95h14q135 0 136 -135q0 -68 -41 -110.5t-123 -42.5q-59 0 -109 18l10 76q43 -16 88 -17 q80 0 80 68q0 37 -18 54.5t-62 17.5h-69l20 170q-219 28 -219 286z" />
<glyph unicode="&#xe8;" horiz-adv-x="753" d="M94 303v385q0 160 82 234.5t219 74.5q281 0 281 -321v-225h-467v-152q0 -117 49 -168t164 -51q109 0 215 39l22 -96q-106 -43 -249 -43q-316 -1 -316 323zM209 549h356v131q0 111 -34.5 165t-135.5 54q-186 0 -186 -203v-147zM240 1278l53 84q92 -82 207 -164l-49 -74 q-94 60 -211 154z" />
<glyph unicode="&#xe9;" horiz-adv-x="753" d="M94 303v385q0 160 82 234.5t219 74.5q281 0 281 -321v-225h-467v-152q0 -117 49 -168t164 -51q109 0 215 39l22 -96q-106 -43 -249 -43q-316 -1 -316 323zM209 549h356v131q0 111 -34.5 165t-135.5 54q-186 0 -186 -203v-147zM260 1198q115 82 207 164l53 -84 q-117 -94 -211 -154z" />
<glyph unicode="&#xea;" horiz-adv-x="753" d="M94 303v385q0 160 82 234.5t219 74.5q281 0 281 -321v-225h-467v-152q0 -117 49 -168t164 -51q109 0 215 39l22 -96q-106 -43 -249 -43q-316 -1 -316 323zM209 549h356v131q0 111 -34.5 165t-135.5 54q-186 0 -186 -203v-147zM209 1190q66 57 182 172q117 -115 182 -172 l-49 -66l-133 117l-133 -117z" />
<glyph unicode="&#xeb;" horiz-adv-x="753" d="M94 303v385q0 160 82 234.5t219 74.5q281 0 281 -321v-225h-467v-152q0 -117 49 -168t164 -51q109 0 215 39l22 -96q-106 -43 -249 -43q-316 -1 -316 323zM203 1176v141h110v-141h-110zM209 549h356v131q0 111 -34.5 165t-135.5 54q-186 0 -186 -203v-147zM461 1176v141 h110v-141h-110z" />
<glyph unicode="&#xec;" horiz-adv-x="360" d="M8 1278l53 84q92 -82 207 -164l-49 -74q-94 60 -211 154zM123 0v977h115v-977h-115z" />
<glyph unicode="&#xed;" horiz-adv-x="360" d="M80 1198q115 82 207 164l53 -84q-117 -94 -211 -154zM123 0v977h115v-977h-115z" />
<glyph unicode="&#xee;" horiz-adv-x="360" d="M-2 1190q66 57 182 172q117 -115 182 -172l-49 -66l-133 117l-133 -117zM123 0v977h115v-977h-115z" />
<glyph unicode="&#xef;" horiz-adv-x="360" d="M-4 1176v141h110v-141h-110zM123 0v977h115v-977h-115zM254 1176v141h111v-141h-111z" />
<glyph unicode="&#xf0;" horiz-adv-x="847" d="M113 338v283q0 326 286 325q121 0 222 -61q-8 168 -113 284l-277 -145l-38 78l247 129q-115 84 -266 123l27 92q203 -53 336 -166l161 86l39 -76l-137 -73q135 -150 135 -422v-457q0 -362 -311 -362t-311 362zM227 334q0 -135 43 -195.5t154 -60.5t154 60.5t43 195.5v450 q-113 59 -211 60q-94 0 -138.5 -52.5t-44.5 -170.5v-287z" />
<glyph unicode="&#xf1;" horiz-adv-x="833" d="M123 0v977h98l10 -98q156 119 316 118q82 0 128 -47t46 -139v-811h-115v784q0 111 -90 111q-123 0 -278 -111v-784h-115zM213 1225q41 61 66.5 82.5t68.5 21.5q45 0 94 -35q55 -39 74 -39q29 0 68 52l59 -45q-39 -57 -64.5 -78t-60.5 -21q-41 0 -88 31q-8 6 -22 15 l-21 14q-6 4 -15.5 8t-19.5 4q-20 0 -34.5 -11.5t-41.5 -45.5z" />
<glyph unicode="&#xf2;" horiz-adv-x="819" d="M94 291v395q0 152 84 231.5t231.5 79.5t231.5 -79.5t84 -231.5v-395q0 -152 -84 -231.5t-231.5 -79.5t-231.5 79.5t-84 231.5zM209 291q0 -209 200.5 -209t200.5 209v395q0 209 -200.5 209t-200.5 -209v-395zM260 1278l53 84q92 -82 207 -164l-49 -74q-94 60 -211 154z " />
<glyph unicode="&#xf3;" horiz-adv-x="819" d="M94 291v395q0 152 84 231.5t231.5 79.5t231.5 -79.5t84 -231.5v-395q0 -152 -84 -231.5t-231.5 -79.5t-231.5 79.5t-84 231.5zM209 291q0 -209 200.5 -209t200.5 209v395q0 209 -200.5 209t-200.5 -209v-395zM287 1198q115 82 207 164l53 -84q-117 -94 -211 -154z" />
<glyph unicode="&#xf4;" horiz-adv-x="819" d="M94 291v395q0 152 84 231.5t231.5 79.5t231.5 -79.5t84 -231.5v-395q0 -152 -84 -231.5t-231.5 -79.5t-231.5 79.5t-84 231.5zM209 291q0 -209 200.5 -209t200.5 209v395q0 209 -200.5 209t-200.5 -209v-395zM227 1190q66 57 183 172q117 -115 182 -172l-49 -66l-133 117 l-134 -117z" />
<glyph unicode="&#xf5;" horiz-adv-x="819" d="M94 291v395q0 152 84 231.5t231.5 79.5t231.5 -79.5t84 -231.5v-395q0 -152 -84 -231.5t-231.5 -79.5t-231.5 79.5t-84 231.5zM209 291q0 -209 200.5 -209t200.5 209v395q0 209 -200.5 209t-200.5 -209v-395zM209 1225q41 61 66.5 82.5t68.5 21.5q45 0 94 -35 q55 -39 74 -39q29 0 68 52l59 -45q-39 -57 -64.5 -78t-60.5 -21q-41 0 -88 31q-8 6 -23 15l-20 14q-6 4 -15.5 8t-19.5 4q-20 0 -34.5 -11.5t-41.5 -45.5z" />
<glyph unicode="&#xf6;" horiz-adv-x="819" d="M94 291v395q0 152 84 231.5t231.5 79.5t231.5 -79.5t84 -231.5v-395q0 -152 -84 -231.5t-231.5 -79.5t-231.5 79.5t-84 231.5zM209 291q0 -209 200.5 -209t200.5 209v395q0 209 -200.5 209t-200.5 -209v-395zM225 1176v141h111v-141h-111zM483 1176v141h111v-141h-111z " />
<glyph unicode="&#xf7;" horiz-adv-x="995" d="M133 657v91h729v-91h-729zM440 276v177h115v-177h-115zM440 952v176h115v-176h-115z" />
<glyph unicode="&#xf8;" horiz-adv-x="819" d="M94 -70l70 144q-70 80 -70 217v395q0 152 84 231.5t232 79.5q102 0 178 -41l69 144l68 -33l-76 -158q76 -82 76 -223v-395q0 -152 -84 -231.5t-231 -79.5q-115 0 -187 45l-61 -127zM209 291q0 -57 12 -96l320 665q-49 35 -131 35q-201 0 -201 -209v-395zM270 121 q47 -39 140 -39q201 0 200 209v395q0 63 -18 107z" />
<glyph unicode="&#xf9;" horiz-adv-x="825" d="M113 166v811h114v-784q0 -111 90 -111q115 0 271 111v784h114v-977h-98l-10 98q-156 -119 -307 -118q-82 0 -128 47t-46 139zM262 1278l53 84q92 -82 207 -164l-49 -74q-94 60 -211 154z" />
<glyph unicode="&#xfa;" horiz-adv-x="825" d="M113 166v811h114v-784q0 -111 90 -111q115 0 271 111v784h114v-977h-98l-10 98q-156 -119 -307 -118q-82 0 -128 47t-46 139zM311 1198q115 82 207 164l53 -84q-117 -94 -211 -154z" />
<glyph unicode="&#xfb;" horiz-adv-x="825" d="M113 166v811h114v-784q0 -111 90 -111q115 0 271 111v784h114v-977h-98l-10 98q-156 -119 -307 -118q-82 0 -128 47t-46 139zM240 1190q66 57 182 172q117 -115 182 -172l-49 -66l-133 117l-133 -117z" />
<glyph unicode="&#xfc;" horiz-adv-x="825" d="M113 166v811h114v-784q0 -111 90 -111q115 0 271 111v784h114v-977h-98l-10 98q-156 -119 -307 -118q-82 0 -128 47t-46 139zM231 1176v141h111v-141h-111zM489 1176v141h111v-141h-111z" />
<glyph unicode="&#xfd;" horiz-adv-x="729" d="M31 977h116l218 -875l217 875h116l-260 -977l-104 -403h-111l109 403h-41zM266 1198q115 82 207 164l53 -84q-117 -94 -211 -154z" />
<glyph unicode="&#xfe;" horiz-adv-x="825" d="M123 -420v1825l115 16v-536q123 113 264 112q225 0 225 -260v-450q0 -154 -76 -230.5t-211 -76.5q-111 0 -202 38v-421zM238 119q104 -37 192 -37q182 0 182 201v456q0 82 -28.5 119t-98.5 37q-106 0 -247 -115v-661z" />
<glyph unicode="&#xff;" horiz-adv-x="729" d="M31 977h116l218 -875l217 875h116l-260 -977l-104 -403h-111l109 403h-41zM178 1176v141h111v-141h-111zM436 1176v141h111v-141h-111z" />
<glyph unicode="&#x152;" horiz-adv-x="1318" d="M113 385v594q0 385 362 385h762v-102h-469v-514h432v-103h-432v-543h469v-102h-762q-362 0 -362 385zM227 385q0 -150 57.5 -216.5t190.5 -66.5h178v1160h-178q-133 0 -190.5 -67t-57.5 -216v-594z" />
<glyph unicode="&#x153;" horiz-adv-x="1290" d="M94 291v395q0 152 84 231.5t232 79.5q170 0 254 -118q82 119 247 118q281 0 281 -321v-225h-467v-160q0 -111 51 -161t166 -50q109 0 217 41l15 -98q-111 -43 -248 -43q-184 0 -260 122q-96 -123 -260 -122q-154 0 -233 80.5t-79 230.5zM209 291q0 -209 200.5 -209 t200.5 205v411q0 197 -200.5 197t-200.5 -209v-395zM725 549h356v131q0 111 -34.5 165t-135.5 54q-186 0 -186 -199v-151z" />
<glyph unicode="&#x178;" d="M25 1364h120l242 -657l242 657h121l-306 -780v-584h-114v584zM199 1516v141h110v-141h-110zM467 1516v141h111v-141h-111z" />
<glyph unicode="&#x2c6;" horiz-adv-x="815" d="M225 1190q66 57 183 172q117 -115 182 -172l-49 -66l-133 117l-134 -117z" />
<glyph unicode="&#x2dc;" horiz-adv-x="880" d="M225 1225q41 61 66.5 82.5t68.5 21.5q45 0 95 -35q55 -39 73 -39q29 0 68 52l59 -45q-39 -57 -64.5 -78t-60.5 -21q-41 0 -88 31q-8 6 -22 15l-21 14q-6 4 -15 8t-19 4q-20 0 -35 -11.5t-41 -45.5z" />
<glyph unicode="&#x2013;" horiz-adv-x="946" d="M123 614v99h700v-99h-700z" />
<glyph unicode="&#x2014;" horiz-adv-x="1298" d="M123 614v99h1053v-99h-1053z" />
<glyph unicode="&#x2018;" horiz-adv-x="354" d="M123 915v197l96 270l53 -18l-75 -252h41v-197h-115z" />
<glyph unicode="&#x2019;" horiz-adv-x="333" d="M82 915l76 252h-41v197h114v-197l-96 -270z" />
<glyph unicode="&#x201a;" horiz-adv-x="362" d="M90 -252l76 252h-41v197h115v-197l-97 -270z" />
<glyph unicode="&#x201c;" horiz-adv-x="630" d="M123 915v197l96 270l53 -18l-75 -252h41v-197h-115zM399 915v197l97 270l53 -18l-76 -252h41v-197h-115z" />
<glyph unicode="&#x201d;" horiz-adv-x="610" d="M82 915l76 252h-41v197h114v-197l-96 -270zM358 915l76 252h-41v197h115v-197l-96 -270z" />
<glyph unicode="&#x201e;" horiz-adv-x="638" d="M90 -252l76 252h-41v197h115v-197l-97 -270zM367 -252l75 252h-41v197h115v-197l-96 -270z" />
<glyph unicode="&#x2022;" horiz-adv-x="784" d="M143 661.5q0 104.5 70 176t178.5 71.5t179 -71.5t70.5 -176t-70.5 -176t-179 -71.5t-178.5 71.5t-70 176z" />
<glyph unicode="&#x2026;" horiz-adv-x="1081" d="M123 0v176h115v-176h-115zM483 0v176h115v-176h-115zM844 0v176h114v-176h-114z" />
<glyph unicode="&#x2039;" horiz-adv-x="612" d="M133 541l232 417l94 -47l-211 -370l211 -371l-94 -47z" />
<glyph unicode="&#x203a;" horiz-adv-x="612" d="M154 170l211 371l-211 370l94 47l231 -417l-231 -418z" />
<glyph unicode="&#x20ac;" horiz-adv-x="892" d="M102 479v94h138v218h-138v94h138v114q0 199 73.5 294.5t255.5 95.5q117 0 217 -27l-14 -98q-100 23 -194 22q-137 0 -180.5 -66.5t-43.5 -232.5v-102h385v-94h-385v-218h385v-94h-385v-102q0 -166 43 -232.5t181 -66.5q94 0 194 22l14 -98q-100 -27 -217 -27 q-182 0 -255.5 95.5t-73.5 294.5v114h-138z" />
<glyph unicode="&#x2122;" horiz-adv-x="966" d="M92 1309v55h303v-55h-121v-351h-61v351h-121zM465 958l14 406h72l119 -305l118 305h72l14 -406h-63l-6 293l-94 -241h-82l-94 241l-7 -293h-63z" />
<glyph unicode="&#xe000;" horiz-adv-x="975" d="M0 975h975v-975h-975v975z" />
<glyph unicode="&#xfb01;" horiz-adv-x="874" d="M51 874v103h133v213q0 236 228 235q61 0 120 -20l-16 -96q-43 14 -98 14q-61 0 -90 -29.5t-29 -105.5v-211h213l-8 -103h-205v-874h-115v874h-133zM637 0v977h115v-977h-115zM637 1169v217h115v-217h-115z" />
<glyph unicode="&#xfb02;" horiz-adv-x="878" d="M51 874v103h133v213q0 236 228 235q61 0 120 -20l-16 -96q-43 14 -98 14q-61 0 -90 -29.5t-29 -105.5v-211h213l-8 -103h-205v-874h-115v874h-133zM641 0v1405l115 16v-1421h-115z" />
<glyph unicode="&#xfb03;" horiz-adv-x="1409" d="M1172 0v977h115v-977h-115zM1172 1169v217h115v-217h-115zM575 874v103h133v213q0 236 228 235q76 0 133 -22l-19 -96q-49 16 -108 16q-61 0 -90 -29.5t-29 -105.5v-211h217l-8 -103h-209v-874h-115v874h-133zM51 874v103h133v213q0 236 228 235q76 0 133 -22l-19 -96 q-49 16 -108 16q-61 0 -90 -29.5t-29 -105.5v-211h217l-8 -103h-209v-874h-115v874h-133z" />
<glyph unicode="&#xfb04;" horiz-adv-x="1409" d="M1172 0v1405l115 16v-1421h-115zM575 874v103h133v213q0 236 228 235q76 0 133 -22l-19 -96q-49 16 -108 16q-61 0 -90 -29.5t-29 -105.5v-211h217l-8 -103h-209v-874h-115v874h-133zM51 874v103h133v213q0 236 228 235q76 0 133 -22l-19 -96q-49 16 -108 16 q-61 0 -90 -29.5t-29 -105.5v-211h217l-8 -103h-209v-874h-115v874h-133z" />
</font>
</defs>
</svg>
