<?xml version="1.0" standalone="no"?>
<!DOCTYPE svg PUBLIC "-//W3C//DTD SVG 1.1//EN" "http://www.w3.org/Graphics/SVG/1.1/DTD/svg11.dtd" >
<svg xmlns="http://www.w3.org/2000/svg">
<metadata>
This is a custom SVG webfont generated by Font Squirrel.
Copyright   : Copyright 2006 Process Type Foundry All rights reserved
Designer    : Eric Olson
Foundry     : Eric Olson
Foundry URL : httpwwwprocesstypefoundrycom
</metadata>
<defs>
<font id="KlavikaCHMedium" horiz-adv-x="1005" >
<font-face units-per-em="2048" ascent="1536" descent="-512" />
<missing-glyph horiz-adv-x="430" />
<glyph unicode=" "  horiz-adv-x="430" />
<glyph unicode="&#x09;" horiz-adv-x="430" />
<glyph unicode="&#xa0;" horiz-adv-x="430" />
<glyph unicode="!" horiz-adv-x="581" d="M164 0v287h254v-287h-254zM166 797v608h250v-608l-51 -355h-148z" />
<glyph unicode="&#x22;" horiz-adv-x="792" d="M123 899v506h178v-506h-178zM492 899v506h178v-506h-178z" />
<glyph unicode="#" horiz-adv-x="1429" d="M102 334l11 172h252l16 325h-258l10 173h256l17 319h186l-17 -319h318l16 319h187l-19 -319h246l-10 -173h-244l-16 -325h250l-11 -172h-248l-16 -334h-184l16 334h-317l-19 -334h-184l16 334h-254zM549 506h319l15 325h-318z" />
<glyph unicode="$" horiz-adv-x="1036" d="M102 47l45 205q178 -55 332 -55q125 0 161 34.5t36 135t-34 132t-185 68.5q-119 29 -185.5 57.5t-103.5 78t-47 107.5t-10 163q0 180 76.5 266t267.5 100v230h207v-230q131 -6 241 -34l-26 -215q-168 35 -334 34q-109 0 -146 -29.5t-37 -128t28 -123t175 -65.5 q90 -25 148.5 -46t100.5 -50t63.5 -53.5t34 -68.5t14.5 -82t2 -109q0 -184 -69 -274.5t-247 -108.5v-228h-204v226q-161 10 -304 63z" />
<glyph unicode="%" horiz-adv-x="1796" d="M102 930v164q0 139 73 214.5t247 75.5t246.5 -75.5t72.5 -214.5v-164q0 -139 -72.5 -215t-246.5 -76t-247 76t-73 215zM299 915q0 -57 26.5 -81.5t96.5 -24.5t96.5 24.5t26.5 81.5v193q0 57 -26.5 81.5t-96.5 24.5t-96.5 -24.5t-26.5 -81.5v-193zM535 43l550 1341 l158 -63l-551 -1341zM1044 270v164q0 139 73 215t247 76t246.5 -76t72.5 -215v-164q0 -139 -72.5 -214.5t-246.5 -75.5t-247 75.5t-73 214.5zM1241 256q0 -57 26.5 -81.5t96.5 -24.5t96.5 24.5t26.5 81.5v193q0 57 -26.5 81.5t-96.5 24.5t-96.5 -24.5t-26.5 -81.5v-193z" />
<glyph unicode="&#x26;" horiz-adv-x="1466" d="M102 293v57q0 57 25 107.5t77 97.5t82.5 69.5t92.5 63.5l-70 68q-84 86 -113.5 139t-31.5 141v31q0 137 112.5 227t284.5 90q186 0 286.5 -80.5t100.5 -224.5v-41q-2 -96 -45 -164.5t-139 -144.5l-62 -47l230 -223q84 113 190 278l178 -112q-166 -246 -217 -314l322 -311 h-309l-152 143q-184 -164 -430 -163q-412 0 -412 313zM352 305q0 -63 48.5 -99t138.5 -36q152 0 258 117l-271 260q-10 -8 -34.5 -25.5t-35.5 -26.5l-32 -26q-20 -16 -29.5 -27.5t-21 -28t-16.5 -31.5t-5 -32v-45zM410 1032q0 -41 17 -69.5t56 -67.5l78 -76l62 45 q98 72 98 164v43q0 119 -156 119q-74 0 -114.5 -33t-40.5 -88v-37z" />
<glyph unicode="'" horiz-adv-x="423" d="M123 899v506h178v-506h-178z" />
<glyph unicode="(" horiz-adv-x="686" d="M143 622.5q0 528.5 318 938.5l184 -107q-131 -213 -190.5 -402.5t-59.5 -429t59.5 -429t190.5 -402.5l-184 -106q-318 409 -318 937.5z" />
<glyph unicode=")" horiz-adv-x="686" d="M41 -209q131 213 190.5 402.5t59.5 429t-59.5 429t-190.5 402.5l184 107q317 -410 317.5 -938.5t-317.5 -937.5z" />
<glyph unicode="*" horiz-adv-x="1028" d="M123 999v121h278l-151 240l100 65l162 -249l162 249l102 -65l-155 -240h284v-121h-278l149 -231l-104 -66l-160 248l-160 -248l-104 66l149 231h-274z" />
<glyph unicode="+" horiz-adv-x="1081" d="M123 399v197h315v317h205v-317h315v-197h-315v-317h-205v317h-315z" />
<glyph unicode="," horiz-adv-x="561" d="M133 -221l115 221h-94v287h254v-303l-160 -269z" />
<glyph unicode="-" horiz-adv-x="761" d="M123 469v209h516v-209h-516z" />
<glyph unicode="." horiz-adv-x="561" d="M154 0v287h254v-287h-254z" />
<glyph unicode="/" horiz-adv-x="940" d="M113 -240l508 1624h227l-510 -1624h-225z" />
<glyph unicode="0" horiz-adv-x="1150" d="M133 346v631q0 367 442.5 366.5t442.5 -366.5v-631q0 -367 -442.5 -367t-442.5 367zM383 371q0 -94 40 -133t152.5 -39t152.5 38.5t40 133.5v581q0 94 -40 133t-152.5 39t-152.5 -38.5t-40 -133.5v-581z" />
<glyph unicode="1" horiz-adv-x="786" d="M20 1106l377 217h226v-1323h-250v1047l-248 -138z" />
<glyph unicode="2" horiz-adv-x="1026" d="M102 1290q184 53 371 53q229 0 327.5 -78.5t98.5 -242.5v-47q0 -143 -32.5 -217t-174.5 -248l-243 -291h454v-219h-794v215l317 354q154 178 188.5 235.5t34.5 153.5v35q0 76 -39 102.5t-151 26.5q-135 0 -322 -41z" />
<glyph unicode="3" horiz-adv-x="1007" d="M102 23l27 206q150 -31 293 -30q131 0 172 29.5t41 113.5v80q0 74 -34 102.5t-114 28.5h-292v223h247q98 0 133 34t35 110v79q0 74 -40 99.5t-148 25.5q-131 0 -283 -28l-26 211q147 37 331 36q231 0 323.5 -73.5t92.5 -227.5v-127q0 -100 -33.5 -156.5t-113.5 -90.5 q90 -31 131 -88.5t41 -159.5v-117q0 -164 -100.5 -243.5t-354.5 -79.5q-199 0 -328 43z" />
<glyph unicode="4" horiz-adv-x="1157" d="M57 291v231l531 801h334v-819h174v-213h-174v-291h-246v291h-619zM307 504h369v571z" />
<glyph unicode="5" horiz-adv-x="1028" d="M123 29l31 204q156 -35 313 -34q131 0 165 31.5t34 121.5v66q0 76 -36 107.5t-141 35.5q-180 8 -325 10v752h729v-217h-479v-330q61 -2 184 -8q172 -8 244.5 -89t72.5 -224v-125q0 -86 -18 -146.5t-65.5 -108.5t-136.5 -71.5t-224 -23.5q-182 0 -348 49z" />
<glyph unicode="6" horiz-adv-x="1077" d="M123 371v497q0 262 137 368.5t428 106.5q131 0 236 -24l-17 -209q-88 18 -192 18q-190 0 -266 -50t-76 -199v-127q106 37 243 36q184 0 266.5 -79.5t82.5 -257.5v-99q0 -373 -420 -372q-246 0 -334 97t-88 294zM373 344q0 -84 38 -116.5t134 -32.5q94 0 132 34.5 t38 114.5v100q0 72 -34 100.5t-103 28.5q-104 0 -205 -43v-186z" />
<glyph unicode="7" horiz-adv-x="942" d="M51 1104v219h830v-211l-473 -1112h-261l471 1104h-567z" />
<glyph unicode="8" horiz-adv-x="1118" d="M123 319v87q0 88 43 150t151 118q-90 53 -125.5 113.5t-35.5 140.5v92q0 324 403.5 323.5t403.5 -323.5v-92q0 -82 -35 -141.5t-127 -112.5q111 -55 152.5 -116.5t41.5 -151.5v-87q0 -182 -99 -260.5t-336.5 -78.5t-337 78.5t-99.5 260.5zM365 324q0 -76 42 -107 t152.5 -31t152.5 31t42 107v55q0 68 -35 104.5t-160 85.5q-125 -49 -159.5 -86t-34.5 -104v-55zM397 928q0 -59 30 -89t132 -71q102 41 132 70.5t30 89.5v86q0 66 -35 95.5t-127 29.5t-127 -30t-35 -95v-86z" />
<glyph unicode="9" horiz-adv-x="1067" d="M102 872v99q0 182 98.5 277t321.5 95q246 0 334 -97t88 -294v-497q0 -262 -137 -368.5t-428 -106.5q-131 0 -236 24l23 209q88 -18 186 -18q197 0 269.5 54t72.5 195v127q-109 -37 -243 -36q-184 0 -266.5 79.5t-82.5 257.5zM352 879q0 -72 34 -100.5t103 -28.5 q104 0 205 43v186q0 84 -38 116.5t-134 32.5q-94 0 -132 -34.5t-38 -114.5v-100z" />
<glyph unicode=":" horiz-adv-x="561" d="M154 0v287h254v-287h-254zM154 623v286h254v-286h-254z" />
<glyph unicode=";" horiz-adv-x="561" d="M133 -221l115 221h-94v287h254v-303l-160 -269zM154 623v286h254v-286h-254z" />
<glyph unicode="&#x3c;" horiz-adv-x="1200" d="M102 432v135l885 451l78 -152l-727 -366l729 -367l-80 -153z" />
<glyph unicode="=" horiz-adv-x="1103" d="M143 233v173h818v-173h-818zM143 618v173h818v-173h-818z" />
<glyph unicode="&#x3e;" horiz-adv-x="1200" d="M133 133l729 367l-727 366l78 152l885 -451v-135l-885 -452z" />
<glyph unicode="?" d="M102 1380q174 45 357 45q254 0 344 -88t90 -293q0 -160 -27.5 -232.5t-138.5 -164.5l-258 -201l-141 191l188 149q88 70 107.5 110t19.5 134q0 100 -41 136t-170 36q-145 0 -293 -37zM301 0v287h254v-287h-254z" />
<glyph unicode="@" horiz-adv-x="1511" d="M102 682q0 303 192.5 502.5t496.5 199.5q293 0 460.5 -160.5t167.5 -400.5q0 -440 -370 -440q-70 0 -127.5 25.5t-77.5 70.5q-86 -51 -201 -51q-90 0 -123 55.5t-18 132.5l37 209q18 109 76.5 151t168.5 42q59 0 137 -20.5t128 -49.5l-76 -424q37 -10 71 -10 q211 0 211 305q0 180 -120.5 297t-343.5 117q-227 0 -373 -154.5t-146 -396.5q0 -258 146.5 -403.5t421.5 -145.5q164 0 317 60l47 -138q-154 -76 -362 -75q-356 0 -548 191.5t-192 510.5zM645 614q-10 -63 47 -63q76 0 150 51l47 270q-55 23 -111 23q-47 0 -68.5 -18.5 t-29.5 -61.5z" />
<glyph unicode="A" horiz-adv-x="1323" d="M51 0l430 1364h361l430 -1364h-271l-88 283h-505l-86 -283h-271zM471 506h377l-186 645z" />
<glyph unicode="B" horiz-adv-x="1181" d="M154 0v1364h536q362 0 363 -291v-141q0 -84 -36 -135.5t-116 -85.5q94 -20 146.5 -86t52.5 -166v-146q0 -147 -95.5 -230t-277.5 -83h-573zM412 213h264q90 0 128 29.5t38 103.5v103q0 70 -34 103.5t-110 33.5h-286v-373zM412 793h245q137 0 138 127v120q0 111 -136 111 h-247v-358z" />
<glyph unicode="C" horiz-adv-x="1071" d="M123 375v614q0 395 485 395q195 0 371 -45l-29 -223q-188 35 -334 35q-131 0 -183 -48t-52 -159v-524q0 -111 52 -159t183 -48q145 0 334 35l29 -223q-176 -45 -371 -45q-485 0 -485 395z" />
<glyph unicode="D" horiz-adv-x="1236" d="M154 0v1364h508q236 0 344 -102.5t108 -264.5v-630q0 -162 -108.5 -264.5t-343.5 -102.5h-508zM412 227h223q125 0 173 48.5t48 152.5v508q0 104 -48 152.5t-173 48.5h-223v-910z" />
<glyph unicode="E" horiz-adv-x="1101" d="M154 0v1364h835v-227h-577v-330h532v-227h-532v-353h577v-227h-835z" />
<glyph unicode="F" horiz-adv-x="1069" d="M154 0v1364h843v-227h-585v-363h540v-227h-540v-547h-258z" />
<glyph unicode="G" horiz-adv-x="1196" d="M123 391v582q0 211 126 311t392 100q223 0 391 -45l-28 -225q-172 37 -383 37q-131 0 -185.5 -52t-54.5 -161v-516q0 -104 54 -157.5t183 -53.5q100 0 211 16v414h244v-600q-215 -61 -457 -61q-493 -1 -493 411z" />
<glyph unicode="H" horiz-adv-x="1329" d="M154 0v1364h258v-561h506v561h258v-1364h-258v575h-506v-575h-258z" />
<glyph unicode="I" horiz-adv-x="565" d="M154 0v1364h258v-1364h-258z" />
<glyph unicode="J" horiz-adv-x="555" d="M-20 -248q125 121 149.5 154t24.5 94v1364h258v-1387q0 -102 -54.5 -177.5t-224.5 -221.5z" />
<glyph unicode="K" horiz-adv-x="1253" d="M154 0v1364h258v-1364h-258zM449 690l421 674h293l-430 -674l459 -690h-297z" />
<glyph unicode="L" horiz-adv-x="1034" d="M154 0v1364h258v-1137h561v-227h-819z" />
<glyph unicode="M" horiz-adv-x="1794" d="M154 0v1364h338l405 -1157l406 1157h337v-1364h-251v930l-328 -930h-328l-327 930v-930h-252z" />
<glyph unicode="N" horiz-adv-x="1421" d="M154 0v1364h344l518 -1036v1036h252v-1364h-344l-518 1034v-1034h-252z" />
<glyph unicode="O" horiz-adv-x="1277" d="M123 399v566q0 188 123 303.5t393 115.5t393 -115.5t123 -303.5v-566q0 -188 -123 -303.5t-393 -115.5t-393 115.5t-123 303.5zM381 414q0 -102 59.5 -154.5t198.5 -52.5t198.5 52t59.5 155v536q0 102 -59.5 154.5t-198.5 52.5t-198.5 -52t-59.5 -155v-536z" />
<glyph unicode="P" horiz-adv-x="1179" d="M154 0v1364h532q229 0 330.5 -91t101.5 -278v-186q0 -182 -105.5 -274.5t-338.5 -92.5h-262v-442h-258zM412 670h260q106 0 147 39t41 127v139q0 86 -42 124t-146 38h-260v-467z" />
<glyph unicode="Q" horiz-adv-x="1277" d="M123 399v566q0 188 123 303.5t393 115.5t393 -115.5t123 -303.5v-566q0 -152 -79 -258t-251 -143l109 -256l-232 -96l-143 338q-227 16 -331.5 128.5t-104.5 286.5zM381 414q0 -102 59.5 -154.5t198.5 -52.5t198.5 52t59.5 155v536q0 102 -59.5 154.5t-198.5 52.5 t-198.5 -52t-59.5 -155v-536z" />
<glyph unicode="R" horiz-adv-x="1331" d="M154 0v1364h559q231 0 332.5 -91t101.5 -278v-178q0 -256 -205 -330l338 -487h-309l-314 451h-245v-451h-258zM412 674h290q104 0 145.5 39t41.5 127v135q0 86 -42 124t-145 38h-290v-463z" />
<glyph unicode="S" horiz-adv-x="1105" d="M98 61l45 203q207 -63 385 -63q135 0 176 33.5t41 136.5q0 66 -3 91t-30.5 53t-71.5 39t-144 34q-129 29 -199 56.5t-112 77.5t-53 112.5t-11 179.5q0 193 103.5 281.5t355.5 88.5q199 0 397 -45l-29 -217q-188 41 -364 41q-127 0 -166 -31.5t-39 -123.5q0 -68 2 -93.5 t31.5 -52t67.5 -37t138 -34.5q94 -23 156 -42.5t107 -47t67.5 -51t35.5 -69.5t16.5 -89t3.5 -121q0 -104 -18.5 -171t-70 -120t-146.5 -76.5t-245 -23.5q-113 0 -234.5 24t-191.5 57z" />
<glyph unicode="T" horiz-adv-x="1122" d="M51 1137v227h1020v-227h-381v-1137h-258v1137h-381z" />
<glyph unicode="U" horiz-adv-x="1294" d="M143 395v969h258v-948q0 -104 57.5 -156.5t188.5 -52.5t188.5 52t57.5 157v948h258v-969q0 -182 -119 -298.5t-385 -116.5t-385 116.5t-119 298.5z" />
<glyph unicode="V" horiz-adv-x="1228" d="M16 1364h269l329 -1137l330 1137h268l-407 -1364h-381z" />
<glyph unicode="W" horiz-adv-x="1933" d="M31 1364h256l260 -1057l248 1057h344l247 -1057l261 1057h256l-338 -1364h-348l-250 1098l-250 -1098h-348z" />
<glyph unicode="X" horiz-adv-x="1253" d="M51 0l428 686l-411 678h276l283 -475l282 475h277l-412 -678l428 -686h-278l-297 483l-297 -483h-279z" />
<glyph unicode="Y" horiz-adv-x="1159" d="M10 1364h275l295 -688l294 688h275l-440 -969v-395h-258v395z" />
<glyph unicode="Z" horiz-adv-x="1177" d="M133 0v217l631 928h-606v219h891v-219l-627 -926h633v-219h-922z" />
<glyph unicode="[" horiz-adv-x="671" d="M174 -258v1876h436v-205h-186v-1466h186v-205h-436z" />
<glyph unicode="\" horiz-adv-x="940" d="M92 1384h227l508 -1624h-225z" />
<glyph unicode="]" horiz-adv-x="671" d="M61 -53h187v1466h-187v205h437v-1876h-437v205z" />
<glyph unicode="^" horiz-adv-x="972" d="M92 852l305 553h174l310 -553l-156 -92l-240 436l-241 -436z" />
<glyph unicode="_" horiz-adv-x="899" d="M-2 -20h903v-132h-903v132z" />
<glyph unicode="`" horiz-adv-x="643" d="M123 1292l98 152q131 -98 299 -201l-92 -139q-129 71 -305 188z" />
<glyph unicode="a" d="M102 276q0 152 69 216.5t222 64.5h240v105q0 86 -37 117.5t-154 31.5q-129 0 -276 -31l-31 191q156 47 342 47q229 0 317.5 -84t88.5 -277v-657h-205l-19 68q-133 -88 -297 -88q-131 0 -195.5 80.5t-64.5 215.5zM344 279q0 -53 21.5 -77t78.5 -24q98 0 189 51v148h-184 q-61 0 -83 -20.5t-22 -77.5z" />
<glyph unicode="b" horiz-adv-x="1081" d="M143 14v1391l250 35v-482q143 59 295 60q301 0 301 -342v-293q0 -98 -18.5 -165.5t-66.5 -125t-140 -85t-234 -27.5q-211 -1 -387 34zM393 201q59 -8 150 -8q117 0 156.5 44t39.5 138v307q0 123 -127 123q-96 0 -219 -57v-547z" />
<glyph unicode="c" horiz-adv-x="858" d="M98 362v273q0 203 98.5 293t331.5 90q133 0 244 -37l-31 -205q-98 27 -206 27q-106 0 -146.5 -37t-40.5 -129v-277q0 -92 40 -128.5t147 -36.5q102 0 206 26l31 -205q-106 -37 -244 -36q-233 0 -331.5 89.5t-98.5 292.5z" />
<glyph unicode="d" horiz-adv-x="1091" d="M102 326v340q0 352 330 352q129 0 266 -29v416l250 35v-1440h-198l-25 84q-145 -104 -315 -104q-152 0 -230 88t-78 258zM352 319q0 -63 28 -94.5t95 -31.5q125 0 223 90v495q-121 27 -221 27q-66 0 -95.5 -32t-29.5 -101v-353z" />
<glyph unicode="e" horiz-adv-x="985" d="M98 365v264q0 389 414 389q221 0 306 -108.5t85 -293.5v-213h-555v-51q0 -92 42 -130t153 -38q150 0 305 47l39 -188q-166 -63 -367 -63q-225 0 -323.5 98.5t-98.5 286.5zM348 604h318v49q0 78 -33 119t-119 41q-166 0 -166 -160v-49z" />
<glyph unicode="f" horiz-adv-x="743" d="M51 799v198h160v140q0 158 77 233.5t240 75.5q113 0 215 -29l-26 -192q-76 16 -144 16q-70 0 -91 -27.5t-21 -91.5v-125h254l-15 -198h-239v-799h-250v799h-160z" />
<glyph unicode="g" horiz-adv-x="1001" d="M82 592v94q4 162 98 247t303 85q88 0 170 -21h308v-125q-18 -4 -55.5 -14t-55.5 -16q35 -66 35 -156v-94q0 -326 -402 -326q-39 0 -57 2q-59 -37 -59 -80q0 -37 55 -43l289 -30q117 -14 165 -71.5t48 -170.5t-35 -173t-133.5 -92t-282.5 -32q-219 0 -385 51l31 187 q172 -43 336 -43q147 0 192 15t45 64q0 45 -17.5 59.5t-76.5 20.5q-66 6 -159 17.5t-130 15.5q-106 12 -151 54t-45 137q0 96 104 170q-135 82 -135 268zM317 602q0 -74 39 -104.5t127 -30.5q90 0 129 31.5t39 103.5v76q0 72 -38 105.5t-130 33.5q-90 0 -128 -33.5 t-38 -105.5v-76z" />
<glyph unicode="h" horiz-adv-x="1116" d="M143 0v1405l250 35v-518q186 96 365 96q225 0 225 -295v-723h-250v696q0 80 -80 80q-100 0 -260 -84v-692h-250z" />
<glyph unicode="i" horiz-adv-x="536" d="M143 0v997h250v-997h-250zM143 1139v288h250v-288h-250z" />
<glyph unicode="j" horiz-adv-x="522" d="M-16 -264q113 104 134 137t21 107v1017h250v-1050q0 -94 -48 -163t-212 -208zM139 1139v288h250v-288h-250z" />
<glyph unicode="k" horiz-adv-x="1040" d="M143 0v1405l250 35v-1440h-250zM428 504l285 493h278l-293 -493l306 -504h-275z" />
<glyph unicode="l" horiz-adv-x="536" d="M143 0v1405l250 35v-1440h-250z" />
<glyph unicode="m" horiz-adv-x="1705" d="M143 0v997h191l24 -84q213 104 400 105q137 0 188 -107q209 106 402 107q225 0 225 -295v-723h-250v696q0 80 -80 80q-47 0 -125 -25.5t-135 -58.5v-692h-250v696q0 80 -80 80q-100 0 -260 -84v-692h-250z" />
<glyph unicode="n" horiz-adv-x="1116" d="M143 0v997h191l24 -84q213 104 400 105q225 0 225 -295v-723h-250v696q0 80 -80 80q-100 0 -260 -84v-692h-250z" />
<glyph unicode="o" horiz-adv-x="1064" d="M98 373v252q0 393 434.5 393t434.5 -393v-252q0 -393 -434.5 -393t-434.5 393zM348 365q0 -86 43 -129t141.5 -43t141.5 43t43 129v268q0 86 -43 129t-141.5 43t-141.5 -43t-43 -129v-268z" />
<glyph unicode="p" horiz-adv-x="1091" d="M143 -438v1435h199l25 -84q145 104 315 105q152 0 229.5 -88t77.5 -258v-340q0 -352 -330 -352q-131 0 -266 28v-411zM393 219q121 -27 221 -26q66 0 95.5 31.5t29.5 101.5v352q0 63 -27.5 95t-95.5 32q-125 0 -223 -90v-496z" />
<glyph unicode="q" horiz-adv-x="1081" d="M102 322v292q0 98 18.5 166t67 125.5t140.5 85t233 27.5q211 0 387 -35v-1386l-250 -35v477q-143 -59 -295 -59q-301 0 -301 342zM352 315q0 -123 127 -122q96 0 219 57v547q-59 8 -149 8q-117 0 -157 -44t-40 -138v-308z" />
<glyph unicode="r" horiz-adv-x="681" d="M143 0v997h211l17 -110q150 100 262 131l24 -230q-121 -53 -264 -145v-643h-250z" />
<glyph unicode="s" horiz-adv-x="915" d="M109 37l34 190q147 -43 297 -43q80 0 103.5 20.5t23.5 80.5q0 51 -30.5 77.5t-143.5 53.5q-176 43 -224 102.5t-48 210.5q0 154 82 221.5t291 67.5q166 0 299 -35l-25 -199q-152 29 -274 29q-78 0 -102.5 -18.5t-24.5 -67.5q0 -59 20.5 -76.5t120.5 -44.5 q207 -55 256 -107.5t49 -207.5q0 -160 -74.5 -235.5t-285.5 -75.5q-182 0 -344 57z" />
<glyph unicode="t" horiz-adv-x="727" d="M31 799v198h149v248l250 35v-283h256l-16 -198h-240v-523q0 -88 90 -88q53 0 125 21l29 -191q-92 -39 -219 -38q-274 0 -275 264v555h-149z" />
<glyph unicode="u" horiz-adv-x="1116" d="M133 274v723h250v-696q0 -80 80 -80q100 0 260 84v692h250v-997h-191l-24 84q-213 -104 -400 -104q-225 -1 -225 294z" />
<glyph unicode="v" horiz-adv-x="989" d="M10 997h256l228 -757l229 757h256l-320 -997h-329z" />
<glyph unicode="w" horiz-adv-x="1441" d="M37 997h233l123 -667l199 667h260l197 -667l122 667h234l-184 -997h-289l-211 717l-211 -717h-289z" />
<glyph unicode="x" horiz-adv-x="958" d="M25 0l321 502l-315 495h250l198 -303l197 303h250l-316 -495l324 -502h-256l-199 309l-200 -309h-254z" />
<glyph unicode="y" horiz-adv-x="978" d="M10 997h256l228 -757l229 757h256l-320 -997l-133 -403h-237l125 403h-88z" />
<glyph unicode="z" horiz-adv-x="942" d="M113 0v193l444 612h-438v192h727v-192l-445 -612h459v-193h-747z" />
<glyph unicode="{" horiz-adv-x="696" d="M92 567v193h41q86 0 86 82v475q0 152 63.5 226.5t202.5 74.5h170v-201h-104q-82 0 -82 -84v-434q0 -106 -36 -167.5t-132 -67.5q96 -6 132 -67.5t36 -168.5v-434q0 -84 82 -84h104v-201h-170q-139 0 -202.5 75t-63.5 226v475q0 82 -86 82h-41z" />
<glyph unicode="|" horiz-adv-x="522" d="M184 -430v2048h154v-2048h-154z" />
<glyph unicode="}" horiz-adv-x="696" d="M41 -90h104q82 0 82 84v434q0 106 36 167.5t132 68.5q-96 6 -132 67.5t-36 167.5v434q0 84 -82 84h-104v201h170q139 0 202.5 -75t63.5 -226v-475q0 -82 86 -82h41v-193h-41q-86 0 -86 -82v-475q0 -152 -63.5 -226.5t-202.5 -74.5h-170v201z" />
<glyph unicode="~" horiz-adv-x="987" d="M72 471q53 137 102 194.5t158 57.5q59 0 165.5 -68.5t151.5 -68.5q86 0 135 139l142 -78q-39 -117 -102.5 -184.5t-174.5 -67.5q-68 0 -170 67.5t-133 67.5q-18 0 -34.5 -6t-26 -11t-21.5 -23.5t-16 -25.5t-18 -35l-17 -36z" />
<glyph unicode="&#xa1;" horiz-adv-x="581" d="M164 711v286h254v-286h-254zM166 205l51 354h148l51 -354v-608h-250v608z" />
<glyph unicode="&#xa2;" horiz-adv-x="899" d="M113 547v272q0 174 70.5 264.5t232.5 110.5v190h172v-184q109 -6 198 -35l-30 -204q-98 27 -207 26q-106 0 -146.5 -37t-40.5 -129v-276q0 -92 40 -129t147 -37q102 0 207 27l30 -205q-92 -31 -198 -37v-184h-172v190q-162 23 -232.5 113t-70.5 264z" />
<glyph unicode="&#xa3;" horiz-adv-x="1110" d="M123 567v199h166q-57 150 -58 246q0 332 426 331q172 0 340 -47l-30 -206q-150 35 -318 34q-88 0 -128 -27.5t-40 -101.5q0 -78 62 -229h385l-15 -199h-335q2 -16 2 -39q0 -166 -127 -309h524v-219h-834v219q84 55 135.5 139t51.5 172v37h-207z" />
<glyph unicode="&#xa4;" horiz-adv-x="1153" d="M113 291l137 137q-25 51 -25 119v278q0 68 25 119l-137 137l149 150l152 -154q72 23 164 23q88 0 159 -23l154 154l149 -150l-137 -137q27 -51 27 -119v-278q0 -68 -27 -119l137 -137l-149 -150l-154 154q-72 -23 -159 -23q-92 0 -164 23l-152 -154zM440 578 q0 -66 32 -89.5t106 -23.5q72 0 104.5 23.5t32.5 89.5v217q0 66 -33 89t-104 23q-74 0 -106 -23.5t-32 -88.5v-217z" />
<glyph unicode="&#xa5;" horiz-adv-x="1142" d="M20 1323h275l276 -647l277 647h274l-262 -578h170v-165h-246l-84 -185h330v-159h-330v-236h-258v236h-329v159h329l-84 185h-245v165h170z" />
<glyph unicode="&#xa6;" horiz-adv-x="522" d="M184 424h154v-854h-154v854zM184 764v854h154v-854h-154z" />
<glyph unicode="&#xa7;" horiz-adv-x="1122" d="M113 1130q0 254 297 254q164 0 350 -57l-33 -168q-195 45 -293 45q-57 0 -81.5 -20.5t-24.5 -73.5q0 -354 213 -1051l-195 -59q-233 708 -233 1130zM373 -326l33 168q195 -45 292 -45q57 0 82 20.5t25 73.5q0 354 -213 1051l194 59q233 -709 234 -1130q0 -254 -297 -254 q-164 0 -350 57z" />
<glyph unicode="&#xa8;" horiz-adv-x="839" d="M123 1135v215h207v-215h-207zM510 1135v215h207v-215h-207z" />
<glyph unicode="&#xa9;" horiz-adv-x="1630" d="M113 682q0 299 195.5 500.5t506.5 201.5t507 -201.5t196 -500.5q0 -297 -196 -499.5t-507 -202.5t-506.5 202.5t-195.5 499.5zM287 682q0 -229 146.5 -384t381.5 -155q238 0 383 155t145 384q0 231 -145 385t-382.5 154t-383 -154t-145.5 -385zM555 563v238 q0 123 65.5 180t217.5 57q115 0 206 -32l-22 -150q-86 23 -166 23q-72 0 -94.5 -19.5t-22.5 -75.5v-204q0 -55 22.5 -75t94.5 -20q80 0 166 23l22 -150q-92 -33 -206 -32q-152 0 -217.5 57t-65.5 180z" />
<glyph unicode="&#xaa;" horiz-adv-x="788" d="M154 958q0 94 43 135.5t141 41.5h149v65q0 55 -22.5 74.5t-96 19.5t-173.5 -18l-21 119q98 31 217 30q143 0 198.5 -52t55.5 -175v-416h-129l-10 43q-86 -55 -189 -55q-82 0 -122.5 51t-40.5 137zM305 958q0 -33 14.5 -48t49.5 -15q61 0 118 33v92h-114 q-41 0 -54.5 -12.5t-13.5 -49.5z" />
<glyph unicode="&#xab;" horiz-adv-x="1032" d="M72 500l260 395l166 -104l-191 -291l191 -291l-166 -105zM494 500l260 395l166 -104l-191 -291l191 -291l-166 -105z" />
<glyph unicode="&#xac;" horiz-adv-x="1112" d="M123 506v196h835v-522h-204v326h-631z" />
<glyph unicode="&#xad;" horiz-adv-x="761" d="M123 469v209h516v-209h-516z" />
<glyph unicode="&#xae;" horiz-adv-x="964" d="M113 1055q0 160 101 265t267 105q168 0 269.5 -105.5t101.5 -264.5q0 -158 -102.5 -265.5t-268.5 -107.5t-267 107.5t-101 265.5zM221 1054.5q0 -116.5 67.5 -194.5t192.5 -78t193.5 78t68.5 194.5t-67.5 193.5t-194.5 77q-125 0 -192.5 -77t-67.5 -193.5zM360 893v340 h140q111 0 110 -96v-37q0 -59 -47 -82l88 -125h-86l-80 111h-51v-111h-74zM434 1071h62q41 0 41 35v24q0 35 -41 35h-62v-94z" />
<glyph unicode="&#xaf;" horiz-adv-x="737" d="M113 1141v166h512v-166h-512z" />
<glyph unicode="&#xb0;" horiz-adv-x="731" d="M102 1083.5q0 110.5 73 185t191.5 74.5t190.5 -74.5t72 -185t-72 -184.5t-190 -74q-121 0 -193 74t-72 184.5zM240 1083q0 -59 33.5 -98t93 -39t92.5 40t33 97q0 61 -32 100.5t-93.5 39.5t-94 -39.5t-32.5 -100.5z" />
<glyph unicode="&#xb1;" horiz-adv-x="1142" d="M154 0v188h835v-188h-835zM154 625v196h315v318h205v-318h315v-196h-315v-318h-205v318h-315z" />
<glyph unicode="&#xb2;" horiz-adv-x="819" d="M133 1303q119 41 266 40q143 0 203 -54t60 -169v-35q0 -49 -3.5 -75.5t-26 -70.5t-69.5 -99l-160 -183h273v-159h-529v141l195 211q94 102 113.5 136t19.5 73v37q0 45 -19.5 61.5t-74.5 16.5q-96 0 -215 -31z" />
<glyph unicode="&#xb3;" horiz-adv-x="811" d="M154 510l14 141q109 -16 229 -16q53 0 71.5 18.5t18.5 55.5v63q0 72 -81 72h-203v141h192q78 0 78 68v63q0 43 -21.5 59.5t-86.5 16.5q-84 0 -185 -14l-16 141q106 25 209 24q152 0 216 -51t64 -155v-62q0 -59 -17.5 -93t-74.5 -62q61 -20 84 -57.5t23 -106.5v-54 q0 -111 -60.5 -166t-220.5 -55q-141 0 -233 29z" />
<glyph unicode="&#xb4;" horiz-adv-x="643" d="M123 1243q150 92 299 201l98 -152q-178 -119 -307 -188z" />
<glyph unicode="&#xb5;" horiz-adv-x="1116" d="M133 -403v1400h250v-696q0 -80 80 -80q100 0 260 84v692h250v-997h-191l-24 84q-193 -94 -375 -104v-383h-250z" />
<glyph unicode="&#xb6;" horiz-adv-x="1077" d="M92 915.5q0 192.5 129 320.5t322 128v-895q-193 0 -322 127t-129 319.5zM473 -287q168 156 200 197t32 92v1362h198v-1387q0 -88 -44 -143t-265 -258z" />
<glyph unicode="&#xb7;" horiz-adv-x="561" d="M154 524v287h254v-287h-254z" />
<glyph unicode="&#xb8;" horiz-adv-x="614" d="M113 -379l20 96q63 -18 133 -18q59 0 80 14.5t21 44.5q0 49 -78 49q-27 0 -64 -4l-59 29l43 199h117l-27 -140q33 4 57 5q72 2 109 -37t37 -103q0 -78 -54.5 -122t-164.5 -44q-92 0 -170 31z" />
<glyph unicode="&#xb9;" horiz-adv-x="710" d="M92 1171l277 152h147v-829h-186v616l-170 -84z" />
<glyph unicode="&#xba;" horiz-adv-x="792" d="M123 1018v160q0 248 272 247q274 0 275 -247v-160q0 -248 -275 -248q-272 0 -272 248zM281 1014q0 -109 114 -109q117 0 117 109v168q0 109 -117 108q-115 0 -114 -108v-168z" />
<glyph unicode="&#xbb;" horiz-adv-x="1032" d="M113 209l190 291l-190 291l166 104l260 -395l-260 -396zM535 209l190 291l-190 291l165 104l261 -395l-261 -396z" />
<glyph unicode="&#xbc;" horiz-adv-x="1757" d="M102 1171l277 152h147v-829h-186v616l-170 -84zM455 -20l612 1425l141 -62l-610 -1425zM961 166v135l299 528h253v-518h121v-145h-121v-166h-178v166h-374zM1145 311h190v361z" />
<glyph unicode="&#xbd;" horiz-adv-x="1810" d="M102 1171l277 152h147v-829h-186v616l-170 -84zM455 -20l612 1425l141 -62l-610 -1425zM1104 805q119 41 266 41q143 0 202.5 -54.5t59.5 -168.5v-35q0 -49 -3 -76t-25.5 -71t-69.5 -99l-160 -182h273v-160h-529v141l195 211q94 102 113.5 136t19.5 73v37 q0 45 -19.5 61.5t-74.5 16.5q-96 0 -215 -31z" />
<glyph unicode="&#xbe;" horiz-adv-x="1824" d="M154 510l14 141q109 -16 229 -16q53 0 71.5 18.5t18.5 55.5v63q0 72 -81 72h-203v141h192q78 0 78 68v63q0 43 -21.5 59.5t-86.5 16.5q-84 0 -185 -14l-16 141q106 25 209 24q152 0 216 -51t64 -155v-62q0 -59 -17.5 -93t-74.5 -62q61 -20 84 -57.5t23 -106.5v-54 q0 -111 -60.5 -166t-220.5 -55q-141 0 -233 29zM522 -20l613 1425l141 -62l-610 -1425zM1028 166v135l299 528h254v-518h121v-145h-121v-166h-178v166h-375zM1212 311h191v361z" />
<glyph unicode="&#xbf;" d="M113 -43q0 160 27.5 232.5t138.5 164.5l258 201l141 -190l-189 -150q-88 -70 -107.5 -109.5t-19.5 -134.5q0 -100 41 -136t170 -36q145 0 293 37l37 -215q-174 -45 -356 -45q-254 0 -344 88t-90 293zM451 711v286h254v-286h-254z" />
<glyph unicode="&#xc0;" horiz-adv-x="1323" d="M51 0l430 1364h361l430 -1364h-271l-88 283h-505l-86 -283h-271zM410 1622l98 152q86 -70 270 -183l-90 -139q-167 88 -278 170zM471 506h377l-186 645z" />
<glyph unicode="&#xc1;" horiz-adv-x="1323" d="M51 0l430 1364h361l430 -1364h-271l-88 283h-505l-86 -283h-271zM471 506h377l-186 645zM561 1591q182 113 273 183l96 -152q-119 -88 -279 -170z" />
<glyph unicode="&#xc2;" horiz-adv-x="1323" d="M51 0l430 1364h361l430 -1364h-271l-88 283h-505l-86 -283h-271zM401 1567q133 90 261 186q145 -111 260 -186l-70 -115q-92 43 -190 100q-98 -55 -189 -100zM471 506h377l-186 645z" />
<glyph unicode="&#xc3;" horiz-adv-x="1323" d="M51 0l430 1364h361l430 -1364h-271l-88 283h-505l-86 -283h-271zM340 1556q86 160 203 160q59 0 129 -41q78 -45 106 -45q57 0 84 76l119 -61q-27 -82 -79 -127t-124 -45q-70 0 -131 40q-68 43 -100 43q-23 0 -44.5 -16t-30.5 -27.5l-30 -39.5zM471 506h377l-186 645z " />
<glyph unicode="&#xc4;" horiz-adv-x="1323" d="M51 0l430 1364h361l430 -1364h-271l-88 283h-505l-86 -283h-271zM360 1487v199h209v-199h-209zM471 506h377l-186 645zM756 1487v199h209v-199h-209z" />
<glyph unicode="&#xc5;" horiz-adv-x="1323" d="M51 0l430 1364h361l430 -1364h-271l-88 283h-505l-86 -283h-271zM471 506h377l-186 645zM494 1602q0 70 46 115.5t121.5 45.5t121.5 -46t46 -115q0 -68 -46 -114t-121 -46q-78 0 -123 44t-45 116zM594 1602q0 -31 18.5 -50.5t49 -19.5t49 19.5t18.5 50.5q0 72 -67.5 72 t-67.5 -72z" />
<glyph unicode="&#xc6;" horiz-adv-x="1765" d="M51 0l430 1364h1172v-227h-740l105 -330h590v-227h-518l110 -353h453v-227h-652l-88 283h-505l-86 -283h-271zM471 506h377l-186 645z" />
<glyph unicode="&#xc7;" horiz-adv-x="1071" d="M123 375v614q0 395 485 395q195 0 371 -45l-29 -223q-188 35 -334 35q-131 0 -183 -48t-52 -159v-524q0 -111 52 -159t183 -48q145 0 334 35l29 -223q-164 -41 -340 -45l-16 -89q33 4 57 5q72 2 108.5 -37t36.5 -103q0 -78 -54 -122t-165 -44q-92 0 -170 31l21 96 q63 -18 133 -18q59 0 79.5 14.5t20.5 44.5q0 49 -78 49q-27 0 -63 -4l-60 29l33 152q-399 33 -399 391z" />
<glyph unicode="&#xc8;" horiz-adv-x="1101" d="M154 0v1364h835v-227h-577v-330h532v-227h-532v-353h577v-227h-835zM334 1622l98 152q86 -70 270 -183l-90 -139q-167 88 -278 170z" />
<glyph unicode="&#xc9;" horiz-adv-x="1101" d="M154 0v1364h835v-227h-577v-330h532v-227h-532v-353h577v-227h-835zM438 1591q182 113 273 183l96 -152q-119 -88 -279 -170z" />
<glyph unicode="&#xca;" horiz-adv-x="1101" d="M154 0v1364h835v-227h-577v-330h532v-227h-532v-353h577v-227h-835zM324 1567q133 90 260 186q145 -111 260 -186l-70 -115q-92 43 -190 100q-98 -55 -189 -100z" />
<glyph unicode="&#xcb;" horiz-adv-x="1101" d="M154 0v1364h835v-227h-577v-330h532v-227h-532v-353h577v-227h-835zM256 1487v199h209v-199h-209zM651 1487v199h209v-199h-209z" />
<glyph unicode="&#xcc;" horiz-adv-x="585" d="M27 1622l98 152q86 -70 270 -183l-90 -139q-167 88 -278 170zM164 0v1364h258v-1364h-258z" />
<glyph unicode="&#xcd;" horiz-adv-x="585" d="M164 0v1364h258v-1364h-258zM190 1591q182 113 273 183l96 -152q-119 -88 -278 -170z" />
<glyph unicode="&#xce;" horiz-adv-x="585" d="M33 1567q133 90 260 186q145 -111 260 -186l-70 -115q-92 43 -190 100q-98 -55 -189 -100zM164 0v1364h258v-1364h-258z" />
<glyph unicode="&#xcf;" horiz-adv-x="585" d="M-8 1487v199h209v-199h-209zM164 0v1364h258v-1364h-258zM387 1487v199h209v-199h-209z" />
<glyph unicode="&#xd0;" horiz-adv-x="1306" d="M82 586v207h141v571h508q236 0 344.5 -102.5t108.5 -264.5v-630q0 -162 -108.5 -264.5t-344.5 -102.5h-508v586h-141zM481 227h224q125 0 173 48.5t48 152.5v508q0 104 -48.5 152.5t-172.5 48.5h-224v-344h209v-207h-209v-359z" />
<glyph unicode="&#xd1;" horiz-adv-x="1421" d="M154 0v1364h344l518 -1036v1036h252v-1364h-344l-518 1034v-1034h-252zM387 1556q86 160 203 160q59 0 129 -41q78 -45 106 -45q57 0 84 76l119 -61q-27 -82 -79 -127t-124 -45q-70 0 -131 40q-68 43 -100 43q-23 0 -44.5 -16t-30.5 -27.5l-30 -39.5z" />
<glyph unicode="&#xd2;" horiz-adv-x="1277" d="M123 399v566q0 188 123 303.5t393 115.5t393 -115.5t123 -303.5v-566q0 -188 -123 -303.5t-393 -115.5t-393 115.5t-123 303.5zM360 1622l99 152q86 -70 270 -183l-90 -139q-168 88 -279 170zM381 414q0 -102 59.5 -154.5t198.5 -52.5t198.5 52t59.5 155v536 q0 102 -59.5 154.5t-198.5 52.5t-198.5 -52t-59.5 -155v-536z" />
<glyph unicode="&#xd3;" horiz-adv-x="1277" d="M123 399v566q0 188 123 303.5t393 115.5t393 -115.5t123 -303.5v-566q0 -188 -123 -303.5t-393 -115.5t-393 115.5t-123 303.5zM381 414q0 -102 59.5 -154.5t198.5 -52.5t198.5 52t59.5 155v536q0 102 -59.5 154.5t-198.5 52.5t-198.5 -52t-59.5 -155v-536zM512 1591 q182 113 272 183l97 -152q-119 -88 -279 -170z" />
<glyph unicode="&#xd4;" horiz-adv-x="1277" d="M123 399v566q0 188 123 303.5t393 115.5t393 -115.5t123 -303.5v-566q0 -188 -123 -303.5t-393 -115.5t-393 115.5t-123 303.5zM379 1567q133 90 260 186q145 -111 260 -186l-70 -115q-92 43 -190 100q-98 -55 -188 -100zM381 414q0 -102 59.5 -154.5t198.5 -52.5 t198.5 52t59.5 155v536q0 102 -59.5 154.5t-198.5 52.5t-198.5 -52t-59.5 -155v-536z" />
<glyph unicode="&#xd5;" horiz-adv-x="1277" d="M123 399v566q0 188 123 303.5t393 115.5t393 -115.5t123 -303.5v-566q0 -188 -123 -303.5t-393 -115.5t-393 115.5t-123 303.5zM307 1556q86 160 203 160q59 0 129 -41q78 -45 106 -45q57 0 84 76l119 -61q-27 -82 -79 -127t-124 -45q-70 0 -131 40q-68 43 -100 43 q-23 0 -44 -16t-30.5 -27.5t-29.5 -39.5zM381 414q0 -102 59.5 -154.5t198.5 -52.5t198.5 52t59.5 155v536q0 102 -59.5 154.5t-198.5 52.5t-198.5 -52t-59.5 -155v-536z" />
<glyph unicode="&#xd6;" horiz-adv-x="1277" d="M123 399v566q0 188 123 303.5t393 115.5t393 -115.5t123 -303.5v-566q0 -188 -123 -303.5t-393 -115.5t-393 115.5t-123 303.5zM336 1487v199h209v-199h-209zM381 414q0 -102 59.5 -154.5t198.5 -52.5t198.5 52t59.5 155v536q0 102 -59.5 154.5t-198.5 52.5t-198.5 -52 t-59.5 -155v-536zM731 1487v199h209v-199h-209z" />
<glyph unicode="&#xd7;" horiz-adv-x="1013" d="M123 252l239 240l-239 237l145 145l238 -239l239 239l146 -145l-240 -237l240 -240l-146 -146l-239 240l-238 -240z" />
<glyph unicode="&#xd8;" horiz-adv-x="1277" d="M123 -61l104 174q-104 106 -104 286v566q0 188 123 303.5t393 115.5q188 0 311 -61l99 164l106 -62l-104 -176q104 -106 104 -284v-566q0 -188 -123 -303.5t-393 -115.5q-193 0 -311 61l-99 -164zM381 414q0 -27 2 -39l442 739q-66 43 -186 43q-139 0 -198.5 -52 t-59.5 -155v-536zM453 250q61 -43 186 -43q139 0 198.5 52t59.5 155v536q0 27 -2 39z" />
<glyph unicode="&#xd9;" horiz-adv-x="1294" d="M143 395v969h258v-948q0 -104 57.5 -156.5t188.5 -52.5t188.5 52t57.5 157v948h258v-969q0 -182 -119 -298.5t-385 -116.5t-385 116.5t-119 298.5zM397 1622l99 152q86 -70 270 -183l-90 -139q-168 88 -279 170z" />
<glyph unicode="&#xda;" horiz-adv-x="1294" d="M143 395v969h258v-948q0 -104 57.5 -156.5t188.5 -52.5t188.5 52t57.5 157v948h258v-969q0 -182 -119 -298.5t-385 -116.5t-385 116.5t-119 298.5zM504 1591q182 113 272 183l96 -152q-119 -88 -278 -170z" />
<glyph unicode="&#xdb;" horiz-adv-x="1294" d="M143 395v969h258v-948q0 -104 57.5 -156.5t188.5 -52.5t188.5 52t57.5 157v948h258v-969q0 -182 -119 -298.5t-385 -116.5t-385 116.5t-119 298.5zM387 1567q133 90 260 186q145 -111 260 -186l-69 -115q-92 43 -191 100q-98 -55 -188 -100z" />
<glyph unicode="&#xdc;" horiz-adv-x="1294" d="M143 395v969h258v-948q0 -104 57.5 -156.5t188.5 -52.5t188.5 52t57.5 157v948h258v-969q0 -182 -119 -298.5t-385 -116.5t-385 116.5t-119 298.5zM346 1487v199h209v-199h-209zM741 1487v199h209v-199h-209z" />
<glyph unicode="&#xdd;" horiz-adv-x="1159" d="M10 1364h275l295 -688l294 688h275l-440 -969v-395h-258v395zM453 1591q182 113 272 183l96 -152q-119 -88 -278 -170z" />
<glyph unicode="&#xde;" horiz-adv-x="1179" d="M154 0v1364h258v-217h274q229 0 330.5 -91t101.5 -278v-186q0 -182 -105.5 -274.5t-338.5 -92.5h-262v-225h-258zM412 453h260q106 0 147 38.5t41 126.5v140q0 86 -42 124t-146 38h-260v-467z" />
<glyph unicode="&#xdf;" horiz-adv-x="1253" d="M143 0v1067q0 186 115 282.5t324 96.5q213 0 324.5 -90t111.5 -248q0 -113 -80 -246q-76 -125 -76 -166q0 -51 125 -151q127 -106 155.5 -150.5t28.5 -140.5q0 -143 -70.5 -208.5t-248.5 -65.5q-139 0 -254 36l29 191q88 -25 198 -25q55 0 76 15.5t21 56.5 q0 39 -19.5 60.5t-126.5 105.5q-102 84 -133 134t-31 130q0 49 15.5 90t58.5 115q53 94 67.5 132t14.5 83q0 61 -47 97t-135 36q-193 0 -193 -180v-1057h-250z" />
<glyph unicode="&#xe0;" d="M102 276q0 152 69 216.5t222 64.5h240v105q0 86 -37 117.5t-154 31.5q-129 0 -276 -31l-31 191q156 47 342 47q229 0 317.5 -84t88.5 -277v-657h-205l-19 68q-133 -88 -297 -88q-131 0 -195.5 80.5t-64.5 215.5zM268 1292l99 152q131 -98 299 -201l-93 -139 q-129 71 -305 188zM344 279q0 -53 21.5 -77t78.5 -24q98 0 189 51v148h-184q-61 0 -83 -20.5t-22 -77.5z" />
<glyph unicode="&#xe1;" d="M102 276q0 152 69 216.5t222 64.5h240v105q0 86 -37 117.5t-154 31.5q-129 0 -276 -31l-31 191q156 47 342 47q229 0 317.5 -84t88.5 -277v-657h-205l-19 68q-133 -88 -297 -88q-131 0 -195.5 80.5t-64.5 215.5zM344 279q0 -53 21.5 -77t78.5 -24q98 0 189 51v148h-184 q-61 0 -83 -20.5t-22 -77.5zM344 1243q150 92 299 201l98 -152q-178 -119 -307 -188z" />
<glyph unicode="&#xe2;" d="M102 276q0 152 69 216.5t222 64.5h240v105q0 86 -37 117.5t-154 31.5q-129 0 -276 -31l-31 191q156 47 342 47q229 0 317.5 -84t88.5 -277v-657h-205l-19 68q-133 -88 -297 -88q-131 0 -195.5 80.5t-64.5 215.5zM231 1202q137 100 287 223q162 -133 285 -223l-78 -110 q-100 57 -207 133q-94 -68 -207 -133zM344 279q0 -53 21.5 -77t78.5 -24q98 0 189 51v148h-184q-61 0 -83 -20.5t-22 -77.5z" />
<glyph unicode="&#xe3;" d="M102 276q0 152 69 216.5t222 64.5h240v105q0 86 -37 117.5t-154 31.5q-129 0 -276 -31l-31 191q156 47 342 47q229 0 317.5 -84t88.5 -277v-657h-205l-19 68q-133 -88 -297 -88q-131 0 -195.5 80.5t-64.5 215.5zM188 1206q86 158 203 158q63 0 129 -41q74 -43 107 -43 q57 0 84 76l118 -62q-27 -82 -79 -127t-123 -45q-68 0 -131 39q-63 43 -101 43q-8 0 -17 -2t-15.5 -5t-14.5 -10t-12 -10t-12.5 -13.5t-11.5 -13.5t-11 -14.5t-10 -13.5zM344 279q0 -53 21.5 -77t78.5 -24q98 0 189 51v148h-184q-61 0 -83 -20.5t-22 -77.5z" />
<glyph unicode="&#xe4;" d="M102 276q0 152 69 216.5t222 64.5h240v105q0 86 -37 117.5t-154 31.5q-129 0 -276 -31l-31 191q156 47 342 47q229 0 317.5 -84t88.5 -277v-657h-205l-19 68q-133 -88 -297 -88q-131 0 -195.5 80.5t-64.5 215.5zM221 1135v215h207v-215h-207zM344 279q0 -53 21.5 -77 t78.5 -24q98 0 189 51v148h-184q-61 0 -83 -20.5t-22 -77.5zM608 1135v215h207v-215h-207z" />
<glyph unicode="&#xe5;" d="M102 276q0 152 69 216.5t222 64.5h240v105q0 86 -37 117.5t-154 31.5q-129 0 -276 -31l-31 191q156 47 342 47q229 0 317.5 -84t88.5 -277v-657h-205l-19 68q-133 -88 -297 -88q-131 0 -195.5 80.5t-64.5 215.5zM322 1270q0 76 49 125t133 49q86 0 134 -49t48 -125 t-48 -126t-134 -50t-134 49t-48 127zM344 279q0 -53 21.5 -77t78.5 -24q98 0 189 51v148h-184q-61 0 -83 -20.5t-22 -77.5zM430 1270q0 -35 20.5 -57.5t53.5 -22.5t53.5 22.5t20.5 57.5t-20.5 56.5t-53.5 21.5t-53.5 -21.5t-20.5 -56.5z" />
<glyph unicode="&#xe6;" horiz-adv-x="1519" d="M102 276q0 152 69 216.5t222 64.5h240v105q0 86 -37 117.5t-154 31.5q-129 0 -276 -31l-31 191q156 47 342 47q168 0 297 -92q127 92 273 92q221 0 306 -108.5t85 -293.5v-213h-555v-51q0 -92 42 -130t152 -38q150 0 305 47l39 -188q-166 -63 -366 -63q-223 0 -328 100 q-158 -100 -342 -100q-143 0 -213 80.5t-70 215.5zM344 279q0 -53 21.5 -77t78.5 -24q106 0 201 53q-12 59 -12 134v12h-184q-61 0 -83 -20.5t-22 -77.5zM883 604h317v49q0 78 -32.5 119t-118.5 41q-166 0 -166 -160v-49z" />
<glyph unicode="&#xe7;" horiz-adv-x="858" d="M98 362v273q0 203 98.5 293t331.5 90q133 0 244 -37l-31 -205q-98 27 -206 27q-106 0 -146.5 -37t-40.5 -129v-277q0 -92 40 -128.5t147 -36.5q102 0 206 26l31 -205q-106 -37 -244 -36h-6l-16 -89q33 4 57 5q72 2 109 -37t37 -103q0 -78 -54.5 -122t-165.5 -44 q-92 0 -170 31l21 96q63 -18 133 -18q59 0 79.5 14.5t20.5 44.5q0 49 -77 49q-27 0 -64 -4l-59 29l33 156q-164 20 -236 109t-72 265z" />
<glyph unicode="&#xe8;" horiz-adv-x="985" d="M98 365v264q0 389 414 389q221 0 306 -108.5t85 -293.5v-213h-555v-51q0 -92 42 -130t153 -38q150 0 305 47l39 -188q-166 -63 -367 -63q-225 0 -323.5 98.5t-98.5 286.5zM246 1292l98 152q131 -98 299 -201l-92 -139q-129 71 -305 188zM348 604h318v49q0 78 -33 119 t-119 41q-166 0 -166 -160v-49z" />
<glyph unicode="&#xe9;" horiz-adv-x="985" d="M98 365v264q0 389 414 389q221 0 306 -108.5t85 -293.5v-213h-555v-51q0 -92 42 -130t153 -38q150 0 305 47l39 -188q-166 -63 -367 -63q-225 0 -323.5 98.5t-98.5 286.5zM338 1243q150 92 299 201l98 -152q-178 -119 -307 -188zM348 604h318v49q0 78 -33 119t-119 41 q-166 0 -166 -160v-49z" />
<glyph unicode="&#xea;" horiz-adv-x="985" d="M98 365v264q0 389 414 389q221 0 306 -108.5t85 -293.5v-213h-555v-51q0 -92 42 -130t153 -38q150 0 305 47l39 -188q-166 -63 -367 -63q-225 0 -323.5 98.5t-98.5 286.5zM223 1202q137 100 287 223q162 -133 285 -223l-78 -110q-100 57 -207 133q-94 -68 -207 -133z M348 604h318v49q0 78 -33 119t-119 41q-166 0 -166 -160v-49z" />
<glyph unicode="&#xeb;" horiz-adv-x="985" d="M98 365v264q0 389 414 389q221 0 306 -108.5t85 -293.5v-213h-555v-51q0 -92 42 -130t153 -38q150 0 305 47l39 -188q-166 -63 -367 -63q-225 0 -323.5 98.5t-98.5 286.5zM217 1135v215h207v-215h-207zM348 604h318v49q0 78 -33 119t-119 41q-166 0 -166 -160v-49z M604 1135v215h207v-215h-207z" />
<glyph unicode="&#xec;" horiz-adv-x="536" d="M-25 1292l99 152q131 -98 299 -201l-92 -139q-130 71 -306 188zM143 0v997h250v-997h-250z" />
<glyph unicode="&#xed;" horiz-adv-x="536" d="M143 0v997h250v-997h-250zM170 1243q150 92 299 201l98 -152q-178 -119 -307 -188z" />
<glyph unicode="&#xee;" horiz-adv-x="536" d="M-16 1202q137 100 286 223l285 -223l-78 -110q-100 57 -207 133q-94 -68 -207 -133zM143 0v997h250v-997h-250z" />
<glyph unicode="&#xef;" horiz-adv-x="536" d="M-29 1135v215h207v-215h-207zM143 0v997h250v-997h-250zM358 1135v215h207v-215h-207z" />
<glyph unicode="&#xf0;" horiz-adv-x="1032" d="M102 322v143q0 193 76 284t262 91q109 0 217 -43q-2 172 -120 268l-168 -131l-78 90l137 109q-78 37 -227 73l43 197q209 -35 356 -119l119 92l78 -88l-95 -74q109 -90 158 -196.5t49 -288.5v-387q0 -172 -87 -267t-314 -95q-231 0 -318.5 86t-87.5 256zM348 340 q0 -86 31 -116.5t125 -30.5t124.5 32.5t30.5 130.5v224q-86 47 -182 47q-66 0 -97.5 -31t-31.5 -100v-156z" />
<glyph unicode="&#xf1;" horiz-adv-x="1116" d="M143 0v997h191l24 -84q213 104 400 105q225 0 225 -295v-723h-250v696q0 80 -80 80q-100 0 -260 -84v-692h-250zM240 1206q86 158 202 158q63 0 129 -41q74 -43 107 -43q57 0 84 76l119 -62q-27 -82 -79 -127t-124 -45q-68 0 -131 39q-63 43 -101 43q-8 0 -17 -2t-15 -5 t-14.5 -10t-12.5 -10t-12 -13.5t-11.5 -13.5t-11.5 -14.5t-10 -13.5z" />
<glyph unicode="&#xf2;" horiz-adv-x="1064" d="M98 373v252q0 393 434.5 393t434.5 -393v-252q0 -393 -434.5 -393t-434.5 393zM260 1292l98 152q131 -98 299 -201l-92 -139q-129 71 -305 188zM348 365q0 -86 43 -129t141.5 -43t141.5 43t43 129v268q0 86 -43 129t-141.5 43t-141.5 -43t-43 -129v-268z" />
<glyph unicode="&#xf3;" horiz-adv-x="1064" d="M98 373v252q0 393 434.5 393t434.5 -393v-252q0 -393 -434.5 -393t-434.5 393zM348 365q0 -86 43 -129t141.5 -43t141.5 43t43 129v268q0 86 -43 129t-141.5 43t-141.5 -43t-43 -129v-268zM391 1243q150 92 299 201l98 -152q-178 -119 -307 -188z" />
<glyph unicode="&#xf4;" horiz-adv-x="1064" d="M98 373v252q0 393 434.5 393t434.5 -393v-252q0 -393 -434.5 -393t-434.5 393zM248 1202q137 100 287 223q162 -133 284 -223l-78 -110q-100 57 -206 133q-94 -68 -207 -133zM348 365q0 -86 43 -129t141.5 -43t141.5 43t43 129v268q0 86 -43 129t-141.5 43t-141.5 -43 t-43 -129v-268z" />
<glyph unicode="&#xf5;" horiz-adv-x="1064" d="M98 373v252q0 393 434.5 393t434.5 -393v-252q0 -393 -434.5 -393t-434.5 393zM215 1206q86 158 203 158q63 0 129 -41q74 -43 106 -43q57 0 84 76l119 -62q-27 -82 -79 -127t-124 -45q-68 0 -131 39q-63 43 -100 43q-8 0 -17.5 -2t-15.5 -5t-14 -10t-12.5 -10 t-12.5 -13.5t-11 -13.5t-11.5 -14.5t-10.5 -13.5zM348 365q0 -86 43 -129t141.5 -43t141.5 43t43 129v268q0 86 -43 129t-141.5 43t-141.5 -43t-43 -129v-268z" />
<glyph unicode="&#xf6;" horiz-adv-x="1064" d="M98 373v252q0 393 434.5 393t434.5 -393v-252q0 -393 -434.5 -393t-434.5 393zM236 1135v215h206v-215h-206zM348 365q0 -86 43 -129t141.5 -43t141.5 43t43 129v268q0 86 -43 129t-141.5 43t-141.5 -43t-43 -129v-268zM623 1135v215h206v-215h-206z" />
<glyph unicode="&#xf7;" horiz-adv-x="1110" d="M133 416v168h844v-168h-844zM436 23v247h238v-247h-238zM436 727v248h238v-248h-238z" />
<glyph unicode="&#xf8;" horiz-adv-x="1064" d="M98 -45l95 137q-94 100 -95 281v252q0 393 434 393q156 0 254 -51l91 131l88 -58l-95 -137q96 -98 97 -278v-252q0 -393 -435 -393q-158 0 -256 51l-90 -133zM348 365q0 -29 2 -41l307 450q-43 31 -125 31q-98 0 -141 -43t-43 -129v-268zM408 221q45 -29 124 -28 q98 0 141.5 43t43.5 129v268q0 29 -2 41z" />
<glyph unicode="&#xf9;" horiz-adv-x="1116" d="M133 274v723h250v-696q0 -80 80 -80q100 0 260 84v692h250v-997h-191l-24 84q-213 -104 -400 -104q-225 -1 -225 294zM287 1292l98 152q131 -98 299 -201l-92 -139q-129 71 -305 188z" />
<glyph unicode="&#xfa;" horiz-adv-x="1116" d="M133 274v723h250v-696q0 -80 80 -80q100 0 260 84v692h250v-997h-191l-24 84q-213 -104 -400 -104q-225 -1 -225 294zM418 1243q150 92 299 201l98 -152q-178 -119 -307 -188z" />
<glyph unicode="&#xfb;" horiz-adv-x="1116" d="M133 274v723h250v-696q0 -80 80 -80q100 0 260 84v692h250v-997h-191l-24 84q-213 -104 -400 -104q-225 -1 -225 294zM274 1202q137 100 287 223l285 -223l-78 -110q-100 57 -207 133q-94 -68 -207 -133z" />
<glyph unicode="&#xfc;" horiz-adv-x="1116" d="M133 274v723h250v-696q0 -80 80 -80q100 0 260 84v692h250v-997h-191l-24 84q-213 -104 -400 -104q-225 -1 -225 294zM268 1135v215h207v-215h-207zM655 1135v215h207v-215h-207z" />
<glyph unicode="&#xfd;" horiz-adv-x="978" d="M10 997h256l228 -757l229 757h256l-320 -997l-133 -403h-237l125 403h-88zM379 1243q150 92 299 201l98 -152q-178 -119 -307 -188z" />
<glyph unicode="&#xfe;" horiz-adv-x="1091" d="M143 -438v1843l250 35v-504q121 82 289 82q152 0 229.5 -88t77.5 -258v-340q0 -352 -330 -352q-131 0 -266 28v-411zM393 219q121 -27 221 -26q66 0 95.5 31.5t29.5 101.5v352q0 63 -27.5 95t-95.5 32q-117 0 -223 -90v-496z" />
<glyph unicode="&#xff;" horiz-adv-x="978" d="M10 997h256l228 -757l229 757h256l-320 -997l-133 -403h-237l125 403h-88zM188 1135v215h207v-215h-207zM575 1135v215h207v-215h-207z" />
<glyph unicode="&#x152;" horiz-adv-x="1835" d="M123 420v524q0 188 123 304t393 116h1083v-227h-577v-330h532v-227h-532v-353h577v-227h-1083q-270 0 -393 116t-123 304zM381 434q0 -102 59.5 -154.5t198.5 -52.5h248v910h-248q-139 0 -198.5 -52.5t-59.5 -154.5v-496z" />
<glyph unicode="&#x153;" horiz-adv-x="1603" d="M98 373v252q0 393 434 393q170 0 306 -100q121 100 292 100q221 0 306.5 -108.5t85.5 -293.5v-213h-555v-51q0 -92 42 -130t152 -38q150 0 305 47l39 -188q-166 -63 -366 -63q-193 0 -305 96q-117 -96 -302 -96q-434 0 -434 393zM348 365q0 -86 43 -129t141 -43 q92 0 136.5 37.5t48.5 117.5v285q0 86 -43 129t-141.5 43t-141.5 -43t-43 -129v-268zM967 604h317v49q0 78 -32.5 119t-118.5 41q-166 0 -166 -160v-49z" />
<glyph unicode="&#x178;" horiz-adv-x="1159" d="M10 1364h275l295 -688l294 688h275l-440 -969v-395h-258v395zM264 1487v199h209v-199h-209zM659 1487v199h209v-199h-209z" />
<glyph unicode="&#x2c6;" horiz-adv-x="796" d="M113 1202q137 100 286 223q162 -133 285 -223l-78 -110q-100 57 -207 133q-94 -68 -206 -133z" />
<glyph unicode="&#x2dc;" horiz-adv-x="866" d="M113 1206q86 158 202 158q63 0 129 -41q74 -43 107 -43q57 0 84 76l119 -62q-27 -82 -79 -127t-124 -45q-68 0 -131 39q-63 43 -101 43q-8 0 -17 -2t-15 -5t-14.5 -10t-12.5 -10t-12 -13.5t-11.5 -13.5t-11.5 -14.5t-10 -13.5z" />
<glyph unicode="&#x2013;" horiz-adv-x="1024" d="M133 469v209h758v-209h-758z" />
<glyph unicode="&#x2014;" horiz-adv-x="1320" d="M133 469v209h1055v-209h-1055z" />
<glyph unicode="&#x2018;" horiz-adv-x="561" d="M154 868v303l159 269l115 -64l-115 -221h95v-287h-254z" />
<glyph unicode="&#x2019;" horiz-adv-x="540" d="M133 897l115 221h-94v287h254v-303l-160 -268z" />
<glyph unicode="&#x201a;" horiz-adv-x="561" d="M133 -221l115 221h-94v287h254v-303l-160 -269z" />
<glyph unicode="&#x201c;" horiz-adv-x="970" d="M154 868v303l159 269l115 -64l-115 -221h95v-287h-254zM563 868v303l160 269l115 -64l-115 -221h94v-287h-254z" />
<glyph unicode="&#x201d;" horiz-adv-x="970" d="M133 897l115 221h-94v287h254v-303l-160 -268zM543 897l114 221h-94v287h254v-303l-160 -268z" />
<glyph unicode="&#x201e;" horiz-adv-x="970" d="M133 -221l115 221h-94v287h254v-303l-160 -269zM543 -221l114 221h-94v287h254v-303l-160 -269z" />
<glyph unicode="&#x2022;" horiz-adv-x="755" d="M113 662q0 111 77.5 188.5t186.5 77.5q111 0 188.5 -78t77.5 -188q0 -109 -78 -187t-188 -78q-109 0 -186.5 78t-77.5 187z" />
<glyph unicode="&#x2026;" horiz-adv-x="1683" d="M154 0v287h254v-287h-254zM715 0v287h254v-287h-254zM1276 0v287h254v-287h-254z" />
<glyph unicode="&#x2039;" horiz-adv-x="610" d="M72 500l260 395l166 -104l-191 -291l191 -291l-166 -105z" />
<glyph unicode="&#x203a;" horiz-adv-x="610" d="M113 209l190 291l-190 291l166 104l260 -395l-260 -396z" />
<glyph unicode="&#x20ac;" horiz-adv-x="1101" d="M61 444v140h150v168h-150v139h150v67q0 385 485 385q160 0 314 -38l-29 -213q-156 29 -276 28q-137 0 -186.5 -47t-49.5 -160v-22h412v-139h-412v-168h412v-140h-412v-34q0 -113 49 -160t187 -47q121 0 276 28l29 -213q-154 -39 -314 -38q-485 0 -485 385v79h-150z" />
<glyph unicode="&#x2122;" horiz-adv-x="1026" d="M102 1282v82h320v-82h-115v-336h-90v336h-115zM494 946l14 418h94l100 -268l103 268h92l16 -418h-88l-4 242l-73 -191h-91l-71 189l-6 -240h-86z" />
<glyph unicode="&#xe000;" horiz-adv-x="995" d="M0 995h995v-995h-995v995z" />
<glyph unicode="&#xfb01;" horiz-adv-x="1280" d="M51 799v198h160v140q0 158 77 233.5t240 75.5q90 0 197 -27l-27 -192q-59 14 -125 14q-70 0 -91 -27.5t-21 -91.5v-125h676v-997h-250v799h-426v-799h-250v799h-160zM887 1139v288h250v-288h-250z" />
<glyph unicode="&#xfb02;" horiz-adv-x="1280" d="M51 799v198h160v140q0 158 77 233.5t240 75.5q104 0 197 -27l-27 -192q-72 14 -125 14q-70 0 -91 -27.5t-21 -91.5v-125h254l-15 -198h-239v-799h-250v799h-160zM887 0v1405l250 35v-1440h-250z" />
<glyph unicode="&#xfb03;" horiz-adv-x="2023" d="M51 799v198h160v140q0 158 77 233.5t240 75.5q133 0 258 -33l-28 -192q-109 20 -185 20q-70 0 -91 -27.5t-21 -91.5v-125h493v140q0 158 77 233.5t241 75.5q96 0 188 -25l-26 -192q-61 12 -117 12q-70 0 -91.5 -27.5t-21.5 -91.5v-125h676v-997h-250v799h-426v-799h-250 v799h-493v-799h-250v799h-160zM1630 1139v288h250v-288h-250z" />
<glyph unicode="&#xfb04;" horiz-adv-x="2023" d="M51 799v198h160v140q0 158 77 233.5t240 75.5q123 0 246 -33l-29 -192q-106 20 -172 20q-70 0 -91 -27.5t-21 -91.5v-125h493v140q0 158 77 233.5t241 75.5q104 0 196 -27l-26 -192q-72 14 -125 14q-70 0 -91.5 -27.5t-21.5 -91.5v-125h254l-14 -198h-240v-799h-250v799 h-493v-799h-250v799h-160zM1630 0v1405l250 35v-1440h-250z" />
</font>
</defs>
</svg>
