<?xml version="1.0" standalone="no"?>
<!DOCTYPE svg PUBLIC "-//W3C//DTD SVG 1.1//EN" "http://www.w3.org/Graphics/SVG/1.1/DTD/svg11.dtd" >
<svg xmlns="http://www.w3.org/2000/svg">
<metadata></metadata>
<defs>
<font id="klavika_ch_medium_condensedRg" horiz-adv-x="409" >
<font-face units-per-em="2048" ascent="1536" descent="-512" />
<missing-glyph horiz-adv-x="387" />
<glyph unicode="&#xfb01;" horiz-adv-x="856" d="M-102 -301q71 90 97 138.5t42 137.5l143 820h-104l33 196h106l37 205q25 137 98.5 190.5t196.5 53.5q126 0 246 -54l-50 -184q-105 41 -174 41q-46 0 -68 -18.5t-30 -61.5l-31 -172h310l100 17l-178 -1008h-226l142 795h-180l-148 -828q-23 -128 -63.5 -204.5 t-151.5 -186.5z" />
<glyph unicode="&#xfb02;" horiz-adv-x="894" d="M-102 -301q71 90 97 138.5t42 137.5l143 820h-104l33 196h106l33 183q27 148 99 207t214 59q86 0 207 -31l197 31l-254 -1440h-226l217 1233q-65 10 -133 10q-46 0 -68 -18.5t-30 -61.5l-31 -172h158l-33 -196h-157l-148 -828q-23 -128 -63.5 -204.5t-151.5 -186.5z" />
<glyph horiz-adv-x="2048" />
<glyph horiz-adv-x="2048" />
<glyph unicode="&#xd;" horiz-adv-x="2048" />
<glyph unicode=" "  horiz-adv-x="387" />
<glyph unicode="&#x09;" horiz-adv-x="387" />
<glyph unicode="&#xa0;" horiz-adv-x="387" />
<glyph unicode="!" horiz-adv-x="430" d="M10 0l47 270h226l-47 -270h-226zM127 412l16 346l107 606h225l-106 -606l-107 -346h-135z" />
<glyph unicode="&#x22;" horiz-adv-x="757" d="M158 852l90 512h201l-91 -512h-200zM512 852l90 512h201l-90 -512h-201z" />
<glyph unicode="#" horiz-adv-x="1101" d="M45 377l39 172h156l63 287h-158l37 172h160l80 356h196l-79 -356h229l80 356h196l-79 -356h149l-39 -172h-149l-64 -287h150l-35 -172h-154l-82 -377h-196l82 377h-230l-82 -377h-196l82 377h-156zM436 549h230l63 287h-229z" />
<glyph unicode="$" horiz-adv-x="811" d="M18 55l41 191q127 -43 236 -43q92 0 130 38.5t54 131.5q8 54 8 69q0 56 -28 87t-107 79q-110 68 -154 130t-44 153q0 44 14 133q27 148 95.5 229t195.5 99l37 204h198l-39 -206q87 -7 162 -35l-35 -187q-125 33 -223 33q-79 0 -115 -30t-51 -109q-8 -39 -8 -70 q0 -40 25.5 -68t101.5 -75q81 -52 121 -85.5t64 -83t24 -118.5q0 -53 -16 -151q-14 -74 -33 -128t-53.5 -105t-90 -82.5t-131.5 -41.5l-35 -204h-196l37 206q-100 9 -185 39z" />
<glyph unicode="%" horiz-adv-x="1511" d="M139 840q0 31 6 65l41 234q22 123 91.5 186.5t211.5 63.5q110 0 172 -61t62 -157q0 -32 -4 -55l-41 -231q-22 -124 -96 -196.5t-205 -72.5q-114 0 -176 62.5t-62 161.5zM324 870q-16 -92 67 -92q85 0 101 92l47 269q16 88 -72 88q-40 0 -63.5 -20.5t-32.5 -69.5zM362 59 l685 1330l151 -80l-686 -1334zM844 199q0 31 6 65l41 234q21 122 92.5 186t210.5 64q113 0 173 -60t60 -158q0 -32 -4 -55l-41 -231q-22 -124 -96 -196.5t-205 -72.5q-114 0 -175.5 62.5t-61.5 161.5zM1028 229q-16 -92 68 -92t100 92l47 269q16 88 -72 88 q-40 0 -63.5 -20.5t-32.5 -69.5z" />
<glyph unicode="&#x26;" horiz-adv-x="1120" d="M41 223q0 33 6 68l12 71q8 46 24.5 83.5t36 65.5t57.5 60.5t71 56t94 64.5l-57 92q-74 118 -74 203q0 23 6 57l10 60q50 285 359 285q145 0 234 -63.5t89 -178.5q0 -17 -6 -55l-10 -58q-15 -86 -53 -145.5t-123 -126.5l-113 -90l144 -215l167 221l134 -111l-203 -262 l192 -305h-252l-86 131q-81 -78 -166 -114.5t-200 -36.5q-143 0 -218 65t-75 178zM272 244q0 -80 111 -80q56 0 104.5 25.5t112.5 89.5l-172 264q-47 -35 -68 -53.5t-41 -51.5t-28 -76l-15 -83q-4 -24 -4 -35zM422 991q0 -13 1.5 -25.5t7.5 -26.5t9 -22.5t14 -26.5t15 -24.5 t19 -29t20 -29.5l84 70q44 36 62.5 64.5t27.5 80.5l10 59q4 24 4 35q0 88 -116 88q-66 0 -99.5 -23.5t-42.5 -76.5l-14 -82q-2 -10 -2 -31z" />
<glyph unicode="'" horiz-adv-x="403" d="M158 852l90 512h201l-91 -512h-200z" />
<glyph unicode="(" horiz-adv-x="624" d="M121 385q0 348 121.5 645t380.5 608l149 -116q-155 -217 -243 -382t-134.5 -346.5t-46.5 -394.5q0 -141 27 -274.5t96 -314.5l-176 -89q-174 357 -174 664z" />
<glyph unicode=")" horiz-adv-x="628" d="M-92 -166q118 173 191.5 298.5t130 262t80.5 271.5t24 295q0 141 -27 274.5t-96 314.5l176 88q174 -357 174 -663q0 -346 -122.5 -643.5t-379.5 -610.5z" />
<glyph unicode="*" horiz-adv-x="772" d="M184 1051l21 116h203l-78 189l114 45l74 -184l135 184l88 -72l-127 -162h199l-20 -116h-211l77 -183l-108 -49l-74 172l-131 -172l-90 72l125 160h-197z" />
<glyph unicode="+" horiz-adv-x="962" d="M137 606v193h266v329h218v-329h266v-193h-266v-330h-218v330h-266z" />
<glyph unicode="," d="M-39 -215l109 215h-68l47 270h225l-49 -270l-176 -264z" />
<glyph unicode="-" horiz-adv-x="593" d="M98 567l35 199h410l-35 -199h-410z" />
<glyph unicode="." d="M0 0l47 270h225l-47 -270h-225z" />
<glyph unicode="/" horiz-adv-x="804" d="M-63 -240l714 1624h234l-715 -1624h-233z" />
<glyph unicode="0" horiz-adv-x="931" d="M49 260q0 36 6 76l123 696q30 175 133.5 266t296.5 91q156 0 244 -73t88 -206q0 -36 -6 -76l-123 -698q-63 -361 -424 -361q-161 0 -249.5 75.5t-88.5 209.5zM274 281q0 -109 129 -109q83 0 125.5 39t55.5 115l127 718q4 28 4 39q0 109 -133 109q-80 0 -121.5 -37.5 t-54.5 -110.5l-127 -718q-5 -30 -5 -45z" />
<glyph unicode="1" horiz-adv-x="602" d="M113 1112l336 252h188l-240 -1364h-225l186 1061l-155 -103z" />
<glyph unicode="2" horiz-adv-x="800" d="M-33 0l33 193q79 90 389 438q82 93 110 129.5t44.5 77t29.5 114.5l15 82q6 27 6 53q0 56 -32.5 80.5t-104.5 24.5q-109 0 -230 -41v190q143 48 314 48q137 0 209.5 -63t72.5 -187q0 -48 -8 -92l-16 -97q-28 -152 -71.5 -232t-168.5 -208q-47 -48 -93 -94t-108 -107.5 t-108 -107.5h428l-35 -201h-676z" />
<glyph unicode="3" horiz-adv-x="804" d="M-6 33l49 184q121 -45 227 -45q99 0 140 37t55 127l20 117q4 24 4 47q0 54 -32.5 74t-106.5 20h-182l37 197h168q88 0 126.5 32.5t51.5 106.5l22 127q5 30 5 43q0 53 -34 72.5t-110 19.5q-99 0 -215 -35l4 191q122 43 293 43q147 0 220 -62.5t73 -179.5q0 -40 -8 -80 l-25 -141q-16 -91 -62.5 -150.5t-140.5 -85.5q140 -35 140 -182q0 -30 -6 -68l-23 -129q-59 -338 -389 -338q-146 0 -301 58z" />
<glyph unicode="4" horiz-adv-x="876" d="M10 319l33 191l545 854h268l-149 -848h135l-31 -197h-139l-56 -319h-219l56 319h-443zM260 516h227l107 600z" />
<glyph unicode="5" horiz-adv-x="821" d="M10 14l39 195q122 -37 215 -37q114 0 163 39t67 137l14 82q4 25 4 51q0 62 -37 86.5t-121 24.5h-237l137 772h590l-35 -197h-365l-65 -376h74q292 0 292 -252q0 -39 -10 -97l-18 -106q-33 -183 -135.5 -272t-300.5 -89q-148 0 -271 39z" />
<glyph unicode="6" horiz-adv-x="882" d="M47 250q0 34 6 74l115 653q20 117 59.5 197t99.5 127t135 67.5t175 20.5q138 0 254 -46l-43 -188q-98 37 -197 37q-130 0 -183.5 -47t-78.5 -182l-35 -197q95 43 201 43q268 0 268 -221q0 -43 -8 -84l-35 -197q-29 -164 -127 -248t-280 -84q-147 0 -236.5 71t-89.5 204z M270 268q0 -52 27.5 -77t89.5 -25q81 0 119 36t51 109l33 189q4 28 4 37q0 47 -27.5 64t-83.5 17q-92 0 -161 -34l-48 -271q-4 -32 -4 -45z" />
<glyph unicode="7" horiz-adv-x="782" d="M23 0l591 1167h-432l35 197h666l-31 -170l-596 -1194h-233z" />
<glyph unicode="8" horiz-adv-x="919" d="M41 231q0 33 6 70l21 117q20 112 76 176t159 102q-61 54 -89 105t-28 114q0 16 7 60l18 106q27 155 117 231.5t266 76.5q147 0 231 -64t84 -182q0 -27 -6 -64l-18 -102q-19 -99 -65.5 -166t-145.5 -115q63 -32 103 -93t40 -146q0 -22 -6 -62l-16 -96q-27 -158 -132 -241 t-288 -83q-161 0 -247.5 66.5t-86.5 189.5zM264 262q0 -54 32 -77t97 -23q78 0 122.5 32.5t57.5 108.5l17 92q4 23 4 49q0 48 -25.5 76t-97.5 74q-100 -54 -137.5 -93.5t-50.5 -115.5l-15 -82q-4 -20 -4 -41zM408 930q0 -47 22 -76t74 -68q68 36 108.5 78.5t51.5 108.5 l18 106q4 20 4 37q0 94 -106 94q-68 0 -103.5 -32t-46.5 -99l-18 -102q-4 -24 -4 -47z" />
<glyph unicode="9" horiz-adv-x="886" d="M51 23l43 188q98 -39 197 -39q130 0 183.5 47t78.5 182l35 197q-95 -43 -201 -43q-268 0 -268 221q0 43 8 84l35 197q29 166 123.5 249t283.5 83q147 0 236.5 -71t89.5 -204q0 -34 -6 -74l-115 -653q-20 -117 -59.5 -197t-99.5 -127t-135 -67.5t-175 -20.5 q-133 0 -254 48zM348 827q0 -47 28 -64.5t83 -17.5q90 0 162 35l47 271q4 32 4 45q0 52 -27.5 77t-89.5 25q-81 0 -119 -36t-51 -109l-33 -189q-4 -28 -4 -37z" />
<glyph unicode=":" horiz-adv-x="430" d="M10 0l47 270h226l-47 -270h-226zM117 610l47 271h225l-47 -271h-225z" />
<glyph unicode=";" horiz-adv-x="428" d="M-31 -215l109 215h-68l47 270h226l-50 -270l-176 -264zM117 610l47 271h225l-47 -271h-225z" />
<glyph unicode="&#x3c;" horiz-adv-x="907" d="M113 592v221l663 336l86 -180l-545 -267l545 -266l-86 -180z" />
<glyph unicode="=" horiz-adv-x="950" d="M131 406v194h750v-194h-750zM131 805v194h750v-194h-750z" />
<glyph unicode="&#x3e;" horiz-adv-x="907" d="M127 436l545 266l-545 267l86 180l664 -336v-221l-664 -336z" />
<glyph unicode="?" horiz-adv-x="772" d="M111 0l47 270h225l-47 -270h-225zM195 590q141 123 225 207q5 5 30 29.5t30.5 30.5t22.5 27t22.5 35.5t14 38.5t13.5 52l8 47q21 131 -108 131q-125 0 -226 -33l-8 191q138 43 297 43q142 0 211.5 -63t69.5 -177q0 -28 -9 -80l-14 -82q-19 -109 -59.5 -177t-143.5 -155 l-256 -213z" />
<glyph unicode="@" horiz-adv-x="1318" d="M78 518q0 135 27.5 259.5t87 237t146.5 195t214 131t281 48.5q231 0 361 -133t130 -336q0 -98 -29 -189.5t-84 -167.5t-145.5 -122t-202.5 -46q-101 0 -157 72q-71 -59 -172 -59q-51 0 -81 30.5t-30 77.5q0 23 10 53l98 269q35 96 92 131t154 35q38 0 80 -12t69 -25.5 t72 -38.5l-143 -391q24 -7 47 -7q111 0 180.5 107.5t69.5 267.5q0 154 -89.5 242t-256.5 88q-109 0 -201 -41t-155.5 -109.5t-108 -159.5t-65.5 -190.5t-21 -202.5q0 -196 93.5 -300.5t309.5 -104.5q117 0 279 43l18 -152q-171 -43 -333 -43q-256 0 -400.5 149.5 t-144.5 393.5zM596.5 560q6.5 -15 28.5 -15q41 0 88 24l102 281q-32 16 -72 16q-26 0 -38.5 -8.5t-20.5 -30.5l-86 -235q-8 -17 -1.5 -32z" />
<glyph unicode="A" horiz-adv-x="878" d="M-82 0l537 1364h264l57 -1364h-233l-2 303h-271l-106 -303h-246zM340 504h201l8 614z" />
<glyph unicode="B" horiz-adv-x="907" d="M10 0l240 1364h416q115 0 176 -51t61 -154q0 -29 -6 -67l-31 -174q-15 -88 -61 -138t-135 -71q85 -11 130.5 -57.5t45.5 -127.5q0 -24 -6 -59l-31 -176q-25 -140 -106.5 -214.5t-245.5 -74.5h-447zM272 193h162q70 0 105.5 27.5t44.5 82.5l30 174q4 24 4 41 q0 44 -24.5 62t-79.5 18h-170zM377 791h137q101 0 119 104l33 186q3 15 3 29q0 26 -12 40q-18 20 -63 21h-150z" />
<glyph unicode="C" horiz-adv-x="761" d="M41 264q0 49 8 96l115 650q35 203 132 291t288 88q138 0 260 -39l-39 -193q-102 31 -189 31q-110 0 -157.5 -42t-69.5 -159l-110 -629q-7 -35 -7 -61q0 -64 37 -92.5t125 -28.5q102 0 207 21v-195q-121 -27 -258 -27q-166 0 -254 73t-88 216z" />
<glyph unicode="D" horiz-adv-x="940" d="M10 0l240 1364h375q165 0 244 -77.5t79 -219.5q0 -53 -10 -115l-102 -579q-23 -132 -69.5 -211t-136.5 -120.5t-235 -41.5h-385zM274 201h134q98 0 140 41.5t60 142.5l103 580q8 50 8 75q0 64 -34.5 93.5t-115.5 29.5h-125z" />
<glyph unicode="E" horiz-adv-x="827" d="M10 0l240 1364h653l-35 -201h-424l-65 -370h387l-37 -201h-387l-68 -391h424l-34 -201h-654z" />
<glyph unicode="F" horiz-adv-x="784" d="M10 0l240 1364h645l-35 -201h-416l-73 -411h379l-35 -201h-379l-96 -551h-230z" />
<glyph unicode="G" horiz-adv-x="903" d="M39 256q0 52 10 104l115 650q36 204 135.5 291.5t310.5 87.5q170 0 314 -56l-41 -194q-139 49 -267 49q-113 0 -159.5 -42.5t-67.5 -158.5l-110 -627q-9 -52 -9 -73q0 -64 37.5 -87.5t128.5 -23.5q52 0 111 12l80 459h215l-109 -614q-172 -58 -350 -58 q-159 0 -251.5 70.5t-92.5 210.5z" />
<glyph unicode="H" horiz-adv-x="997" d="M10 0l240 1364h229l-102 -576h334l102 576h229l-239 -1364h-230l103 588h-334l-102 -588h-230z" />
<glyph unicode="I" horiz-adv-x="446" d="M16 0l240 1364h229l-239 -1364h-230z" />
<glyph unicode="J" horiz-adv-x="434" d="M-176 -281q21 22 57 58.5t46.5 47t29.5 33t24 34.5t12 31t11 42l246 1399h229l-248 -1411q-14 -76 -34.5 -120.5t-76 -102.5t-175.5 -154z" />
<glyph unicode="K" horiz-adv-x="931" d="M10 0l240 1364h229l-239 -1364h-230zM387 694l379 670h266l-407 -676l202 -688h-247z" />
<glyph unicode="L" horiz-adv-x="761" d="M10 0l240 1364h229l-205 -1163h375l-35 -201h-604z" />
<glyph unicode="M" horiz-adv-x="1382" d="M10 0l240 1364h315l74 -1128l463 1128h325l-239 -1364h-225l167 975l-405 -975h-250l-69 975l-168 -975h-228z" />
<glyph unicode="N" horiz-adv-x="1026" d="M10 0l240 1364h227l219 -877l154 877h221l-240 -1364h-229l-217 874l-154 -874h-221z" />
<glyph unicode="O" horiz-adv-x="952" d="M43 285q0 43 10 98l109 616q34 193 145.5 291.5t310.5 98.5q171 0 259 -85.5t88 -226.5q0 -36 -11 -100l-104 -594q-13 -75 -33.5 -133.5t-56.5 -111.5t-85.5 -88t-121.5 -55t-164 -20q-174 0 -260 84t-86 226zM272 303q0 -127 144 -127q86 0 134.5 43t65.5 139l115 652 q4 24 4 51q0 127 -141 127q-88 0 -136 -41.5t-65 -136.5l-114 -650q-7 -44 -7 -57z" />
<glyph unicode="P" horiz-adv-x="890" d="M10 0l240 1364h409q145 0 219 -65.5t74 -192.5q0 -50 -8 -94l-26 -152q-15 -84 -40 -143t-70.5 -106t-118.5 -70t-175 -23h-184l-90 -518h-230zM365 717h163q73 0 110.5 35t49.5 108l29 162q4 23 4 49q0 50 -27.5 72t-85.5 22h-164z" />
<glyph unicode="Q" horiz-adv-x="952" d="M43 285q0 43 10 98l109 616q34 193 145.5 291.5t310.5 98.5q171 0 259 -85.5t88 -226.5q0 -36 -11 -100l-104 -594q-13 -75 -33.5 -133.5t-56.5 -111.5t-85.5 -88t-121.5 -55t-164 -20q-174 0 -260 84t-86 226zM188 -295l37 180q240 -11 422 -65l-43 -185 q-217 55 -416 70zM272 303q0 -127 144 -127q86 0 134.5 43t65.5 139l115 652q4 24 4 51q0 127 -141 127q-88 0 -136 -41.5t-65 -136.5l-114 -650q-7 -44 -7 -57z" />
<glyph unicode="R" horiz-adv-x="970" d="M10 0l240 1364h430q145 0 219 -65.5t74 -192.5q0 -50 -8 -94l-27 -152q-24 -130 -76 -208.5t-155 -110.5l151 -541h-248l-137 518h-143l-90 -518h-230zM365 717h184q73 0 110.5 35t49.5 108l28 162q4 23 4 49q0 50 -27 72t-85 22h-185z" />
<glyph unicode="S" horiz-adv-x="751" d="M-20 27l47 196q99 -47 221 -47q98 0 140.5 42.5t60.5 141.5q10 58 10 95q0 52 -27 81t-102 64q-117 55 -163 120t-46 159q0 51 18 157q35 197 127.5 275t276.5 78q130 0 260 -46l-43 -196q-118 41 -215 41q-84 0 -121.5 -34.5t-54.5 -129.5q-11 -64 -11 -80q0 -43 26 -68 t108 -69q116 -62 160 -117.5t44 -159.5q0 -61 -20 -184q-35 -199 -135.5 -285t-292.5 -86q-56 0 -134.5 15t-133.5 37z" />
<glyph unicode="T" horiz-adv-x="770" d="M131 1163l35 201h733l-35 -201h-252l-204 -1163h-230l205 1163h-252z" />
<glyph unicode="U" horiz-adv-x="966" d="M63 270q0 46 9 99l174 995h229l-176 -1006q-6 -40 -6 -67q0 -59 29.5 -87t99.5 -28q90 0 130 40.5t56 131.5l178 1016h230l-174 -993q-16 -94 -45 -162.5t-79 -123t-129 -82.5t-188 -28q-172 0 -255 77.5t-83 217.5z" />
<glyph unicode="V" horiz-adv-x="831" d="M158 1364h241l-20 -1032l336 1032h254l-508 -1364h-271z" />
<glyph unicode="W" horiz-adv-x="1339" d="M162 1364h227l-22 -942l323 942h252l-8 -942l309 942h234l-490 -1364h-244l25 1057l-354 -1057h-244z" />
<glyph unicode="X" horiz-adv-x="878" d="M-86 0l438 709l-174 655h232l106 -434l240 434h248l-416 -674l184 -690h-231l-111 444l-268 -444h-248z" />
<glyph unicode="Y" horiz-adv-x="813" d="M147 1364h246l56 -571l247 571h265l-443 -848l-90 -516h-229l92 526z" />
<glyph unicode="Z" horiz-adv-x="790" d="M-14 182l602 981h-414l35 201h637l10 -182l-600 -981h438l-35 -201h-659z" />
<glyph unicode="[" horiz-adv-x="557" d="M-6 -258l332 1876h383l-31 -180h-160l-266 -1516h158l-31 -180h-385z" />
<glyph unicode="\" horiz-adv-x="794" d="M223 1384h223l142 -1624h-223z" />
<glyph unicode="]" horiz-adv-x="559" d="M-96 -258l30 180h160l266 1516h-157l30 180h385l-331 -1876h-383z" />
<glyph unicode="^" horiz-adv-x="858" d="M139 793l234 571h241l234 -571l-186 -74l-168 457l-168 -457z" />
<glyph unicode="_" horiz-adv-x="636" d="M-158 -358l27 153h641l-27 -153h-641z" />
<glyph unicode="`" horiz-adv-x="737" d="M295 1296l135 154q85 -94 209 -199l-117 -139q-149 110 -227 184z" />
<glyph unicode="a" horiz-adv-x="835" d="M20 168q0 17 7 57l82 463q21 121 58.5 188.5t111 101.5t196.5 34q164 0 346 -105l-159 -907h-187l-2 106q-126 -126 -264 -126q-89 0 -139 50t-50 138zM258 256q-2 -13 -2 -25q0 -55 57 -55q79 0 168 78l97 547q-52 18 -107 18q-73 0 -99 -30t-38 -101z" />
<glyph unicode="b" horiz-adv-x="847" d="M6 59l238 1346l231 35l-92 -518q57 42 125.5 66t124.5 24q92 0 144 -50.5t52 -138.5q0 -23 -6 -57l-82 -463q-31 -173 -122.5 -248t-280.5 -75q-167 0 -332 79zM254 186q54 -14 106 -14q75 0 110 32.5t46 98.5l76 430q2 10 2 18q0 25 -13 41q-17 22 -59 23 q-66 0 -166 -49z" />
<glyph unicode="c" horiz-adv-x="620" d="M16 190q0 41 7 76l79 455q27 154 110.5 222.5t227.5 68.5q125 0 215 -37l-34 -182q-79 22 -152 22q-66 0 -100 -24.5t-45 -94.5l-78 -442q-7 -38 5.5 -59t55.5 -21q74 0 209 41l14 -180q-57 -22 -132.5 -38.5t-133.5 -16.5q-248 0 -248 210z" />
<glyph unicode="d" horiz-adv-x="874" d="M31 174q0 24 6 59l86 488q29 160 101 225.5t208 65.5q109 0 201 -56l80 449l231 35l-254 -1440h-184l-2 94q-56 -50 -125.5 -82t-140.5 -32q-96 0 -151.5 51t-55.5 143zM266 256q-2 -10 -2 -19q0 -24 12 -40q16 -23 54 -23q80 0 180 80l94 539q-64 22 -123 22 q-66 0 -95.5 -23.5t-41.5 -91.5z" />
<glyph unicode="e" horiz-adv-x="731" d="M16 201q0 27 7 67l73 418q57 326 373 326q127 0 196.5 -64t69.5 -172q0 -71 -21.5 -126.5t-66.5 -96.5t-101 -71t-138 -60l-142 -51l-22 -127q-2 -11 -2 -20q0 -58 71 -58q82 0 277 90l45 -174q-113 -55 -195.5 -78.5t-171.5 -23.5q-124 0 -188 58t-64 163zM301 571 q49 19 84 33q73 31 105 65.5t32 84.5q0 75 -71 75q-54 0 -84.5 -31.5t-42.5 -99.5z" />
<glyph unicode="f" horiz-adv-x="540" d="M-102 -301q71 90 97 138.5t42 137.5l143 820h-104l33 196h106l37 205q24 134 91 189t187 55q103 0 185 -37l-37 -180q-55 20 -117 20q-42 0 -62 -17t-26 -55l-33 -180h181l-33 -196h-180l-148 -828q-23 -128 -63.5 -204.5t-151.5 -186.5z" />
<glyph unicode="g" horiz-adv-x="862" d="M-16 -354l49 176q141 -60 254 -60q73 0 106.5 25.5t42.5 83.5l43 244q-59 -43 -127.5 -69t-122.5 -26q-92 0 -144 50.5t-52 138.5q0 23 6 57l76 422q31 176 117 250t272 74q69 0 139.5 -16.5t109 -32.5t93.5 -43l-189 -1072q-47 -272 -354 -272q-74 0 -161.5 20 t-157.5 50zM270 299q-2 -10 -2 -18q0 -25 13 -41q17 -23 59 -23q66 0 166 49l94 539q-54 14 -104 14q-75 0 -110 -32.5t-46 -98.5z" />
<glyph unicode="h" horiz-adv-x="849" d="M0 0l248 1405l231 35l-94 -531q159 103 277 103q82 0 120.5 -45t38.5 -123q0 -18 -6 -53l-139 -791h-225l133 756q1 9 1 16q0 43 -44 43q-62 0 -185 -70l-131 -745h-225z" />
<glyph unicode="i" d="M0 0l172 971l231 37l-178 -1008h-225zM197 1114l49 283l231 33l-49 -281z" />
<glyph unicode="j" d="M-190 -281q25 26 67 67.5t52.5 53.5t29 36.5t24.5 42.5t11 46l178 1006l231 37l-186 -1055q-10 -56 -22.5 -91.5t-43.5 -79t-82 -90t-139 -116.5zM197 1114l49 283l231 33l-49 -281z" />
<glyph unicode="k" horiz-adv-x="796" d="M0 0l248 1405l231 35l-254 -1440h-225zM340 504l285 508l215 -45l-281 -465l152 -502h-226z" />
<glyph unicode="l" d="M0 0l248 1405l231 35l-254 -1440h-225z" />
<glyph unicode="m" horiz-adv-x="1280" d="M0 0l170 971l192 37l5 -105q155 109 284 109q64 0 103 -29t51 -80q56 41 136 75t151 34q82 0 120.5 -45t38.5 -123q0 -18 -6 -53l-139 -791h-225l133 756q1 9 1 16q0 43 -44 43q-24 0 -59.5 -13t-53.5 -23t-61 -34l-131 -745h-226l133 756q1 9 1 16q0 43 -44 43 q-24 0 -59.5 -13t-53.5 -23t-61 -34l-131 -745h-225z" />
<glyph unicode="n" horiz-adv-x="849" d="M0 0l170 971l192 37l5 -105q67 47 146.5 78t148.5 31q82 0 120.5 -45t38.5 -123q0 -18 -6 -53l-139 -791h-225l133 756q1 9 1 16q0 43 -44 43q-62 0 -185 -70l-131 -745h-225z" />
<glyph unicode="o" horiz-adv-x="831" d="M23 262q0 40 6 74l61 350q29 168 124 247t271 79q154 0 235 -75.5t81 -205.5q0 -39 -6 -80l-60 -340q-30 -167 -125.5 -249t-277.5 -82q-145 0 -227 76t-82 206zM246 274q0 -102 110 -102q70 0 104.5 33t45.5 98l65 371q4 24 4 41q0 104 -112 104q-63 0 -99 -30t-49 -105 l-65 -371q-4 -24 -4 -39z" />
<glyph unicode="p" horiz-adv-x="866" d="M-78 -438l252 1429h184l2 -94q56 50 126 82.5t141 32.5q99 0 153 -51t54 -142q0 -23 -7 -63l-86 -488q-28 -157 -104 -222.5t-199 -65.5q-120 0 -207 55l-77 -438zM260 199q67 -23 123 -23q66 0 95.5 23.5t41.5 91.5l78 442q2 12 2 22q0 22 -10 39q-15 23 -55 23 q-81 0 -181 -80z" />
<glyph unicode="q" horiz-adv-x="866" d="M29 168q0 22 6 57l82 463q31 176 117 250t272 74q178 0 344 -92l-234 -1323l-231 -35l90 508q-57 -42 -125.5 -66t-124.5 -24q-92 0 -144 50t-52 138zM266 258q-2 -10 -2 -18q0 -25 13 -42q17 -22 59 -22q66 0 166 49l102 580q-54 14 -106 14q-75 0 -110 -32.5t-46 -98.5 z" />
<glyph unicode="r" horiz-adv-x="526" d="M0 0l170 971l192 37l-2 -144q31 50 81.5 89.5t105.5 58.5l33 -215q-113 -36 -234 -111l-121 -686h-225z" />
<glyph unicode="s" horiz-adv-x="655" d="M-2 31l45 182q104 -43 199 -43q57 0 82.5 20t35.5 76q3 17 3 31q0 28 -12 46q-18 26 -79 63q-98 60 -138 110t-40 131q0 41 10 96q27 151 102 210t226 59q114 0 227 -39l-34 -180q-95 28 -189 28q-57 0 -78 -17.5t-30 -70.5q-4 -24 -4 -37q0 -26 14.5 -43t60.5 -47 q112 -71 153.5 -119t41.5 -129q0 -43 -8 -90q-27 -151 -102 -219.5t-230 -68.5q-139 0 -256 51z" />
<glyph unicode="t" horiz-adv-x="583" d="M53 795l35 196h115l45 258l229 21l-49 -279h205l-33 -196h-207l-102 -586q-3 -18 2.5 -26.5t23.5 -8.5q35 0 144 37l28 -176q-147 -55 -258 -55q-83 0 -129.5 44t-46.5 113q0 13 4 37l109 621h-115z" />
<glyph unicode="u" horiz-adv-x="841" d="M18 147q0 14 7 54l137 782l227 14l-133 -761q-1 -9 -1 -16q0 -44 44 -44q55 0 176 70l131 737l225 14l-174 -997h-188l-4 88q-154 -108 -287 -108q-83 0 -121.5 44.5t-38.5 122.5z" />
<glyph unicode="v" horiz-adv-x="722" d="M68 965l223 36l61 -768q93 305 142 465q28 95 28 164q0 54 -8 109l223 37q17 -69 17 -136q0 -95 -37 -192q-36 -99 -101.5 -269t-113.5 -291l-47 -120h-269z" />
<glyph unicode="w" horiz-adv-x="1077" d="M61 965l203 34q50 -356 72 -725l160 478l-41 206l192 37l123 -727l86 437q12 68 12 112q0 68 -16 154l207 37q16 -78 16 -150q0 -89 -35 -229l-159 -629h-222l-106 469l-156 -469h-223q-60 595 -113 965z" />
<glyph unicode="x" horiz-adv-x="739" d="M-74 0l330 518l-147 451l213 39l84 -322l167 305h240l-330 -499l168 -492h-223l-88 295l-172 -295h-242z" />
<glyph unicode="y" horiz-adv-x="727" d="M-20 -279q75 45 113 73.5t75.5 78.5t69.5 127h-58l-110 965l223 36l61 -768q93 305 142 465q28 95 28 164q0 54 -8 109l223 37q17 -69 17 -136q0 -95 -37 -192l-250 -680q-71 -181 -150 -267.5t-251 -176.5z" />
<glyph unicode="z" horiz-adv-x="677" d="M-10 162l438 645h-330l39 184h549l4 -162l-438 -645h336l-31 -184h-559z" />
<glyph unicode="{" horiz-adv-x="610" d="M72 588l32 186h54q43 0 61 17.5t25 54.5l90 514q26 149 87 203.5t187 54.5h154l-31 -180h-84q-42 0 -61.5 -17t-26.5 -61l-86 -490q-15 -86 -60 -134t-145 -56q74 -12 108 -46.5t34 -94.5q0 -26 -4 -50l-87 -489q-7 -42 6.5 -59t55.5 -17h82l-31 -182h-135q-97 0 -152 50 t-55 149q0 37 6 71l88 500q8 41 -6 58.5t-57 17.5h-49z" />
<glyph unicode="|" horiz-adv-x="516" d="M18 -258l332 1876h205l-332 -1876h-205z" />
<glyph unicode="}" horiz-adv-x="612" d="M-96 -258l30 180h84q42 0 61.5 17t26.5 61l87 489q15 87 59.5 135t144.5 56q-74 12 -107.5 46.5t-33.5 94.5q0 25 4 49l86 490q7 43 -6.5 59.5t-54.5 16.5h-82l30 182h136q97 0 151.5 -50t54.5 -149q0 -37 -6 -71l-88 -500q-8 -41 6.5 -58.5t57.5 -17.5h49l-33 -186h-53 q-43 0 -61 -17.5t-25 -54.5l-90 -514q-26 -148 -87 -203t-188 -55h-153z" />
<glyph unicode="~" horiz-adv-x="874" d="M113 578q0 147 52.5 229t162.5 82q44 0 81 -14t91 -48q8 -5 23 -14.5t22 -14t18 -11t17 -9.5t14 -6.5t14.5 -4.5t12.5 -1q15 0 26.5 7t17.5 15.5t11 28t7 33t5 41.5l156 -55q0 -312 -199 -312q-28 0 -58 10t-47.5 20t-62.5 36q-5 3 -17 10.5l-16 10t-14 8t-14 7.5 t-11.5 6t-12 5.5t-11 4t-11 3.5t-10.5 1.5t-12 0.5q-39 0 -56 -30t-20 -89z" />
<glyph unicode="&#xa1;" horiz-adv-x="450" d="M-51 -401l106 606l107 346h135l-16 -346l-107 -606h-225zM147 721l48 270h225l-47 -270h-226z" />
<glyph unicode="&#xa2;" horiz-adv-x="729" d="M80 395q0 46 6 76l74 424q21 121 77 189t148 90l35 192h223l-33 -188q47 -7 119 -29l-35 -182q-90 22 -168 22q-67 0 -100.5 -24t-44.5 -93l-72 -407q-15 -86 62 -86q86 0 225 41l14 -180q-95 -31 -174 -45l-33 -195h-223l33 199q-133 42 -133 196z" />
<glyph unicode="&#xa3;" horiz-adv-x="874" d="M-20 0l28 170q106 116 154.5 194t75.5 205h-134l35 195h137l50 283q18 101 52.5 169.5t87.5 105.5t114 52t143 15q105 0 203 -31l-35 -189q-65 21 -143 21q-95 0 -138 -33.5t-61 -134.5l-45 -258h284l-36 -195h-287q-40 -210 -199 -372h463l-33 -197h-716z" />
<glyph unicode="&#xa4;" horiz-adv-x="987" d="M35 256l129 115q-19 55 -19 106q0 39 13 109l35 196q14 80 31.5 131t51.5 88l-92 111l158 135l107 -129q71 23 147 23q69 0 145 -29l152 129l108 -135l-133 -111q19 -52 19 -100q0 -40 -13 -113l-34 -196q-23 -138 -84 -219l90 -113l-150 -127l-108 127q-78 -29 -154 -29 q-78 0 -139 25q-57 -51 -152 -129zM358 508q0 -94 109 -94q68 0 105 29t49 98l51 286q4 24 4 33q0 94 -117 94q-68 0 -101.5 -29.5t-45.5 -97.5l-50 -276q-4 -32 -4 -43z" />
<glyph unicode="&#xa5;" horiz-adv-x="868" d="M59 322l27 174h233l7 30l-19 131h-186l26 179h136l-70 528h238l32 -594l222 594h253l-256 -528h132l-27 -179h-191l-67 -141l-4 -20h227l-27 -174h-231l-55 -322h-226l56 322h-230z" />
<glyph unicode="&#xa6;" horiz-adv-x="561" d="M205 -258v786h213v-786h-213zM205 831v787h213v-787h-213z" />
<glyph unicode="&#xa7;" horiz-adv-x="1011" d="M168 774q0 159 25 322q26 156 103.5 224.5t217.5 68.5q131 0 254 -54l-39 -164q-114 43 -194 43q-60 0 -89.5 -21t-39.5 -77q-29 -164 -29 -350q0 -299 80 -719l-185 -47q-104 426 -104 774zM264 -330l39 164q114 -43 195 -43q60 0 89.5 21t39.5 77q28 158 28 351 q0 298 -80 718l185 48q104 -426 104 -775q0 -165 -24 -321q-26 -156 -103.5 -224.5t-218.5 -68.5q-133 0 -254 53z" />
<glyph unicode="&#xa8;" horiz-adv-x="868" d="M260 1151l39 233h190l-38 -233h-191zM551 1151l39 233h190l-39 -233h-190z" />
<glyph unicode="&#xa9;" horiz-adv-x="1544" d="M94 682q0 208 85.5 367t246 247t373.5 88t373 -88t245.5 -247t85.5 -367t-85.5 -367t-245.5 -247t-373 -88t-373.5 88t-246 247t-85.5 367zM213 682q0 -170 67.5 -302.5t201.5 -210t317 -77.5t317 77.5t201 210t67 302.5q0 171 -67 303.5t-201 210.5t-317 78 q-138 0 -249.5 -45t-184.5 -124.5t-112.5 -187.5t-39.5 -235zM549 586v198q0 258 268 258q99 0 191 -30l-25 -144q-73 21 -141 21q-64 0 -87.5 -25.5t-23.5 -83.5v-190q0 -58 23.5 -83.5t87.5 -25.5q68 0 141 21l25 -144q-92 -30 -191 -30q-268 0 -268 258z" />
<glyph unicode="&#xaa;" horiz-adv-x="690" d="M174 854q0 13 4 41l55 313q17 96 74 138.5t162 42.5q107 0 231 -66l-102 -582h-147l-2 50q-29 -27 -72 -44.5t-80 -17.5q-60 0 -91.5 34t-31.5 91zM356 918q-6 -41 31 -41q34 0 64 18l59 338q-27 10 -51 10q-45 0 -53 -45z" />
<glyph unicode="&#xab;" horiz-adv-x="1009" d="M94 541l297 417l158 -116l-227 -312l129 -329l-191 -78zM492 541l296 417l158 -116l-227 -312l129 -329l-191 -78z" />
<glyph unicode="&#xac;" horiz-adv-x="995" d="M164 772v193h749v-523h-217v330h-532z" />
<glyph unicode="&#xad;" horiz-adv-x="593" d="M98 567l35 199h410l-35 -199h-410z" />
<glyph unicode="&#xae;" horiz-adv-x="884" d="M166 1055q0 162 98 266t271 104t270.5 -104t97.5 -266q0 -163 -97.5 -268t-270.5 -105t-271 105t-98 268zM250 1055q0 -61 16 -113t49 -94.5t89.5 -67t130.5 -24.5t130.5 24.5t89 67t48.5 94.5t16 113t-16 113t-48.5 94.5t-89 67t-130.5 24.5t-130.5 -24.5t-89.5 -67 t-49 -94.5t-16 -113zM410 893v340h165q50 0 72.5 -22.5t22.5 -73.5v-35q0 -63 -47 -84l79 -125h-100l-65 111h-43v-111h-84zM494 1071h61q31 0 31 29v37q0 15 -7 21.5t-24 6.5h-61v-94z" />
<glyph unicode="&#xaf;" horiz-adv-x="843" d="M276 1180l31 174h455l-31 -174h-455z" />
<glyph unicode="&#xb0;" horiz-adv-x="688" d="M193 1098q0 129 78.5 210t215.5 81q107 0 164.5 -57t57.5 -150q0 -133 -76.5 -214t-218.5 -81q-106 0 -163.5 59.5t-57.5 151.5zM334 1108q0 -45 23 -73.5t71 -28.5q68 0 104.5 44.5t36.5 116.5q0 103 -96 103q-66 0 -102.5 -43.5t-36.5 -118.5z" />
<glyph unicode="&#xb1;" horiz-adv-x="964" d="M102 0v186h750v-186h-750zM102 627v192h267v309h217v-309h266v-192h-266v-310h-217v310h-267z" />
<glyph unicode="&#xb2;" horiz-adv-x="749" d="M135 543l27 151q45 38 128 108.5t134 115.5q56 49 77.5 80.5t30.5 82.5l9 45q9 53 -9 73t-71 20q-76 0 -172 -29l6 162q109 32 213 32q110 0 165.5 -49.5t55.5 -140.5q0 -28 -6 -66l-6 -36q-17 -91 -48 -139.5t-110 -116.5q-111 -93 -162 -134h256l-28 -159h-490z" />
<glyph unicode="&#xb3;" horiz-adv-x="708" d="M137 555l37 150q74 -27 154 -27q54 0 77 17t31 59l8 49q7 40 -9 54.5t-62 14.5h-135l28 162h127q45 0 65.5 17t26.5 53l9 45q9 48 -8.5 64t-71.5 16q-64 0 -148 -23l8 148q95 30 218 30q98 0 145 -36t47 -113q0 -27 -6 -61l-10 -58q-12 -63 -42 -100t-100 -53 q103 -22 103 -119q0 -23 -4 -43l-13 -70q-37 -209 -282 -209q-96 0 -193 33z" />
<glyph unicode="&#xb4;" horiz-adv-x="751" d="M281 1255q90 59 262 193l104 -168q-133 -86 -280 -168z" />
<glyph unicode="&#xb5;" horiz-adv-x="843" d="M-86 -438l250 1421l227 14l-133 -761q-9 -60 43 -60q55 0 176 70l131 737l226 14l-175 -997h-188l-4 88q-132 -92 -254 -106l-68 -385z" />
<glyph unicode="&#xb6;" horiz-adv-x="942" d="M123 825q0 246 139 392.5t385 146.5l-158 -897q-167 0 -266.5 94.5t-99.5 263.5zM262 -287q29 26 77.5 68.5t65 57.5t43.5 42.5t36.5 43.5t19.5 38.5t14 48.5l240 1352h205l-238 -1352q-8 -44 -18 -77t-32.5 -68.5t-41.5 -59.5t-66 -66.5t-83.5 -72t-114.5 -92.5z" />
<glyph unicode="&#xb7;" d="M90 518l47 270h225l-47 -270h-225z" />
<glyph unicode="&#xb8;" horiz-adv-x="708" d="M35 -377l26 105q63 -25 111 -25q35 0 55.5 14t20.5 41q0 49 -58 49q-16 0 -40 -4l-44 25l68 201h113l-41 -133q137 0 137 -119q0 -91 -54 -135.5t-149 -44.5q-69 0 -145 26z" />
<glyph unicode="&#xb9;" horiz-adv-x="620" d="M199 1190l272 174h143l-145 -821h-182l106 600l-137 -74z" />
<glyph unicode="&#xba;" horiz-adv-x="661" d="M170 909q0 15 4 43l39 219q39 218 258 218q101 0 154 -50t53 -131q0 -23 -4 -47l-37 -209q-39 -223 -256 -223q-100 0 -155.5 50t-55.5 130zM346 942q-10 -65 45 -65q59 0 70 63l41 234q11 69 -47 69q-34 0 -48.5 -18t-19.5 -51z" />
<glyph unicode="&#xbb;" horiz-adv-x="1009" d="M68 240l227 311l-129 330l190 77l166 -417l-297 -418zM465 240l227 311l-129 330l191 77l166 -417l-297 -418z" />
<glyph unicode="&#xbc;" horiz-adv-x="1574" d="M229 1190l273 174h143l-145 -821h-183l107 600l-137 -74zM328 -8l751 1423l140 -78l-754 -1427zM803 174l24 129l359 518h213l-90 -506h96l-27 -141h-94l-31 -174h-159l30 174h-321zM987 315h162l57 324z" />
<glyph unicode="&#xbd;" horiz-adv-x="1601" d="M229 1190l273 174h143l-145 -821h-183l107 600l-137 -74zM328 -8l751 1423l140 -78l-754 -1427zM881 0l26 152q52 44 132 111.5t130 111.5q56 49 78 81t31 83l8 45q9 53 -9 72.5t-71 19.5q-76 0 -172 -29l6 162q112 33 213 33q110 0 166 -50t56 -141q0 -21 -7 -65l-6 -37 q-17 -92 -47.5 -140t-109.5 -116q-82 -69 -162 -133h256l-29 -160h-489z" />
<glyph unicode="&#xbe;" horiz-adv-x="1585" d="M137 555l37 150q74 -27 154 -27q54 0 77 17t31 59l8 49q7 40 -9 54.5t-62 14.5h-135l28 162h127q45 0 65.5 17t26.5 53l9 45q9 48 -8.5 64t-71.5 16q-64 0 -148 -23l8 148q95 30 218 30q98 0 145 -36t47 -113q0 -27 -6 -61l-10 -58q-12 -63 -42 -100t-100 -53 q103 -22 103 -119q0 -23 -4 -43l-13 -70q-37 -209 -282 -209q-96 0 -193 33zM338 -8l752 1423l139 -78l-754 -1427zM813 174l25 129l358 518h213l-90 -506h96l-26 -141h-95l-30 -174h-160l31 174h-322zM997 315h162l58 324z" />
<glyph unicode="&#xbf;" horiz-adv-x="792" d="M-31 -184q0 34 8 80l15 81q19 109 59.5 177t143.5 155l256 213l120 -147q-141 -123 -225 -207q-5 -5 -30 -29.5t-30.5 -30.5t-22.5 -27t-22.5 -35.5t-14 -38.5t-13.5 -52l-8 -47q-21 -131 108 -131q125 0 226 33l8 -191q-138 -43 -297 -43q-142 0 -211.5 63t-69.5 177z M389 721l47 270h226l-48 -270h-225z" />
<glyph unicode="&#xc0;" horiz-adv-x="878" d="M-82 0l537 1364h264l57 -1364h-233l-2 303h-271l-106 -303h-246zM340 504h201l8 614zM426 1624l135 154q67 -74 191 -179l-117 -139q-22 16 -59 42.5t-53.5 39t-43 34.5t-53.5 48z" />
<glyph unicode="&#xc1;" horiz-adv-x="878" d="M-82 0l537 1364h264l57 -1364h-233l-2 303h-271l-106 -303h-246zM340 504h201l8 614zM465 1604q141 92 244 174l104 -168q-44 -28 -84.5 -51.5t-95 -53t-82.5 -45.5z" />
<glyph unicode="&#xc2;" horiz-adv-x="878" d="M-82 0l537 1364h264l57 -1364h-233l-2 303h-271l-106 -303h-246zM340 504h201l8 614zM360 1581q223 154 283 197q69 -80 207 -203l-109 -115l-129 101l-176 -101z" />
<glyph unicode="&#xc3;" horiz-adv-x="878" d="M-82 0l537 1364h264l57 -1364h-233l-2 303h-271l-106 -303h-246zM334 1579q32 47 44.5 65t34.5 45.5t36 36.5t34.5 17t44.5 8q30 0 51 -9t62 -34q4 -3 13.5 -8.5t12 -7t9.5 -5.5t9 -5t7.5 -3.5t8 -3t7 -1.5t8.5 -1h9q20 0 33.5 11.5t42.5 48.5l104 -72q-8 -11 -30.5 -44 t-29 -41.5t-25 -29t-30.5 -26.5t-31.5 -12.5t-41.5 -6.5q-54 0 -117 39q-9 5 -21 13t-17.5 11t-13 7t-13.5 5t-13 1t-13 -1t-11.5 -5t-10 -7t-11 -11t-11 -13t-14 -17t-15.5 -20zM340 504h201l8 614z" />
<glyph unicode="&#xc4;" horiz-adv-x="878" d="M-82 0l537 1364h264l57 -1364h-233l-2 303h-271l-106 -303h-246zM340 504h201l8 614zM362 1505l39 234h195l-39 -234h-195zM657 1505l39 234h195l-39 -234h-195z" />
<glyph unicode="&#xc5;" horiz-adv-x="878" d="M-82 0l524 1335q-16 27 -16 74q0 84 50.5 137t144.5 53q69 0 109 -36.5t40 -98.5q0 -85 -49 -137l55 -1327h-233l-2 303h-271l-106 -303h-246zM340 504h201l8 614zM535 1417q0 -24 13.5 -38.5t39.5 -14.5q35 0 54.5 25.5t19.5 62.5q0 55 -54 55q-37 0 -55 -24.5 t-18 -65.5z" />
<glyph unicode="&#xc6;" horiz-adv-x="1226" d="M-82 0l537 1364h848l-35 -201h-541l16 -370h422l-37 -201h-376l16 -391h330l-35 -201h-520l-2 303h-271l-106 -303h-246zM340 504h201l8 614z" />
<glyph unicode="&#xc7;" horiz-adv-x="761" d="M41 264q0 49 8 96l115 650q35 203 132 291t288 88q138 0 260 -39l-39 -193q-102 31 -189 31q-110 0 -157.5 -42t-69.5 -159l-110 -629q-7 -35 -7 -61q0 -64 37 -92.5t125 -28.5q102 0 207 21v-195q-113 -24 -235 -27l-25 -79q137 0 137 -119q0 -91 -54 -135.5t-149 -44.5 q-69 0 -145 26l27 105q63 -25 110 -25q35 0 55.5 14t20.5 41q0 49 -57 49q-17 0 -41 -4l-43 25l51 154q-252 38 -252 282z" />
<glyph unicode="&#xc8;" horiz-adv-x="827" d="M10 0l240 1364h653l-35 -201h-424l-65 -370h387l-37 -201h-387l-68 -391h424l-34 -201h-654zM422 1624l135 154q67 -74 191 -179l-117 -139q-22 16 -59 42.5t-53.5 39t-43 34.5t-53.5 48z" />
<glyph unicode="&#xc9;" horiz-adv-x="827" d="M10 0l240 1364h653l-35 -201h-424l-65 -370h387l-37 -201h-387l-68 -391h424l-34 -201h-654zM440 1604q141 92 244 174l104 -168q-44 -28 -84.5 -51.5t-95 -53t-82.5 -45.5z" />
<glyph unicode="&#xca;" horiz-adv-x="827" d="M10 0l240 1364h653l-35 -201h-424l-65 -370h387l-37 -201h-387l-68 -391h424l-34 -201h-654zM362 1581q223 154 283 197q69 -80 207 -203l-109 -115l-129 101l-176 -101z" />
<glyph unicode="&#xcb;" horiz-adv-x="827" d="M10 0l240 1364h653l-35 -201h-424l-65 -370h387l-37 -201h-387l-68 -391h424l-34 -201h-654zM352 1505l39 234h195l-39 -234h-195zM647 1505l39 234h195l-39 -234h-195z" />
<glyph unicode="&#xcc;" horiz-adv-x="446" d="M16 0l240 1364h229l-239 -1364h-230zM203 1624l135 154q70 -78 190 -179l-116 -139q-22 16 -59 42.5t-53.5 39t-43 34.5t-53.5 48z" />
<glyph unicode="&#xcd;" horiz-adv-x="446" d="M16 0l240 1364h229l-239 -1364h-230zM258 1604q141 92 244 174l104 -168q-44 -28 -84.5 -51.5t-95 -53t-82.5 -45.5z" />
<glyph unicode="&#xce;" horiz-adv-x="446" d="M16 0l240 1364h229l-239 -1364h-230zM158 1581q176 122 282 197q69 -80 207 -203l-108 -115l-129 101l-177 -101z" />
<glyph unicode="&#xcf;" horiz-adv-x="446" d="M16 0l240 1364h229l-239 -1364h-230zM156 1505l39 234h194l-39 -234h-194zM451 1505l38 234h195l-39 -234h-194z" />
<glyph unicode="&#xd0;" horiz-adv-x="970" d="M41 0l102 584h-90l35 196h90l103 584h374q165 0 244.5 -77.5t79.5 -219.5q0 -53 -10 -115l-103 -579q-18 -99 -47 -166t-80 -115t-127.5 -70t-185.5 -22h-385zM305 201h133q98 0 140.5 41.5t60.5 142.5l102 580q9 56 9 75q0 64 -34.5 93.5t-115.5 29.5h-125l-67 -383h165 l-34 -196h-166z" />
<glyph unicode="&#xd1;" horiz-adv-x="1026" d="M10 0l240 1364h227l219 -877l154 877h221l-240 -1364h-229l-217 874l-154 -874h-221zM403 1579q31 46 44.5 65t35 45.5t36 36.5t35 17.5t44.5 7.5q30 0 51 -9t62 -34q4 -3 13.5 -8.5t12 -7t9.5 -5.5t9 -5t7.5 -3.5t8 -3t7 -1.5t8.5 -1h9q14 0 25.5 7t20 16.5t29.5 36.5 l105 -72q-8 -12 -26.5 -38.5t-25.5 -36t-22 -28t-25 -25.5t-25 -16.5t-30.5 -12.5t-34.5 -3q-53 0 -116 39q-9 5 -21 13t-17.5 11t-13 7t-13.5 5t-13 1t-13 -1t-11.5 -5t-10 -7t-11 -11t-11 -13t-14 -17t-15.5 -20z" />
<glyph unicode="&#xd2;" horiz-adv-x="952" d="M43 285q0 43 10 98l109 616q34 193 145.5 291.5t310.5 98.5q171 0 259 -85.5t88 -226.5q0 -36 -11 -100l-104 -594q-13 -75 -33.5 -133.5t-56.5 -111.5t-85.5 -88t-121.5 -55t-164 -20q-174 0 -260 84t-86 226zM272 303q0 -127 144 -127q86 0 134.5 43t65.5 139l115 652 q4 24 4 51q0 127 -141 127q-88 0 -136 -41.5t-65 -136.5l-114 -650q-7 -44 -7 -57zM473 1624l135 154q67 -74 191 -179l-117 -139q-22 16 -59 42.5t-53.5 39t-43 34.5t-53.5 48z" />
<glyph unicode="&#xd3;" horiz-adv-x="952" d="M43 285q0 43 10 98l109 616q34 193 145.5 291.5t310.5 98.5q171 0 259 -85.5t88 -226.5q0 -36 -11 -100l-104 -594q-13 -75 -33.5 -133.5t-56.5 -111.5t-85.5 -88t-121.5 -55t-164 -20q-174 0 -260 84t-86 226zM272 303q0 -127 144 -127q86 0 134.5 43t65.5 139l115 652 q4 24 4 51q0 127 -141 127q-88 0 -136 -41.5t-65 -136.5l-114 -650q-7 -44 -7 -57zM461 1604q141 92 244 174l104 -168q-44 -28 -84.5 -51.5t-95 -53t-82.5 -45.5z" />
<glyph unicode="&#xd4;" horiz-adv-x="952" d="M43 285q0 43 10 98l109 616q34 193 145.5 291.5t310.5 98.5q171 0 259 -85.5t88 -226.5q0 -36 -11 -100l-104 -594q-13 -75 -33.5 -133.5t-56.5 -111.5t-85.5 -88t-121.5 -55t-164 -20q-174 0 -260 84t-86 226zM272 303q0 -127 144 -127q86 0 134.5 43t65.5 139l115 652 q4 24 4 51q0 127 -141 127q-88 0 -136 -41.5t-65 -136.5l-114 -650q-7 -44 -7 -57zM399 1581q223 154 283 197q69 -80 207 -203l-109 -115l-129 101l-176 -101z" />
<glyph unicode="&#xd5;" horiz-adv-x="952" d="M43 285q0 43 10 98l109 616q34 193 145.5 291.5t310.5 98.5q171 0 259 -85.5t88 -226.5q0 -36 -11 -100l-104 -594q-13 -75 -33.5 -133.5t-56.5 -111.5t-85.5 -88t-121.5 -55t-164 -20q-174 0 -260 84t-86 226zM272 303q0 -127 144 -127q86 0 134.5 43t65.5 139l115 652 q4 24 4 51q0 127 -141 127q-88 0 -136 -41.5t-65 -136.5l-114 -650q-7 -44 -7 -57zM369 1579q32 47 44.5 65t34.5 45.5t36 36.5t34.5 17t44.5 8q30 0 51 -9t62 -34q4 -3 13.5 -8.5t12 -7t9.5 -5.5t9 -5t7.5 -3.5t8 -3t7 -1.5t8.5 -1h9q20 0 33.5 11.5t42.5 48.5l104 -72 q-8 -11 -30.5 -44t-29 -41.5t-25 -29t-30.5 -26.5t-31.5 -12.5t-41.5 -6.5q-54 0 -117 39q-9 5 -21 13t-17.5 11t-13 7t-13.5 5t-13 1t-13 -1t-11.5 -5t-10 -7t-11 -11t-11 -13t-14 -17t-15.5 -20z" />
<glyph unicode="&#xd6;" horiz-adv-x="952" d="M43 285q0 43 10 98l109 616q34 193 145.5 291.5t310.5 98.5q171 0 259 -85.5t88 -226.5q0 -36 -11 -100l-104 -594q-13 -75 -33.5 -133.5t-56.5 -111.5t-85.5 -88t-121.5 -55t-164 -20q-174 0 -260 84t-86 226zM272 303q0 -127 144 -127q86 0 134.5 43t65.5 139l115 652 q4 24 4 51q0 127 -141 127q-88 0 -136 -41.5t-65 -136.5l-114 -650q-7 -44 -7 -57zM399 1505l39 234h195l-39 -234h-195zM694 1505l39 234h195l-39 -234h-195z" />
<glyph unicode="&#xd7;" horiz-adv-x="917" d="M123 467l235 235l-235 234l137 137l236 -233l233 233l137 -137l-233 -234l233 -235l-137 -137l-233 235l-236 -235z" />
<glyph unicode="&#xd8;" horiz-adv-x="956" d="M-20 -70l110 179q-45 81 -45 176q0 43 10 98l109 616q34 193 146 291.5t311 98.5q145 0 231 -64l102 162l80 -55l-112 -181q45 -71 45 -174q0 -36 -11 -100l-104 -594q-13 -75 -33.5 -133.5t-56.5 -111.5t-85.5 -88t-121.5 -55t-164 -20q-142 0 -231 60l-99 -158z M287 236q29 -60 131 -60q86 0 134.5 43t65.5 139l101 568zM293 430l432 692q-29 66 -129 66q-88 0 -136 -41.5t-65 -136.5z" />
<glyph unicode="&#xd9;" horiz-adv-x="966" d="M63 270q0 46 9 99l174 995h229l-176 -1006q-6 -40 -6 -67q0 -59 29.5 -87t99.5 -28q90 0 130 40.5t56 131.5l178 1016h230l-174 -993q-16 -94 -45 -162.5t-79 -123t-129 -82.5t-188 -28q-172 0 -255 77.5t-83 217.5zM457 1624l135 154q70 -78 190 -179l-116 -139 q-22 16 -59 42.5t-53.5 39t-43 34.5t-53.5 48z" />
<glyph unicode="&#xda;" horiz-adv-x="966" d="M63 270q0 46 9 99l174 995h229l-176 -1006q-6 -40 -6 -67q0 -59 29.5 -87t99.5 -28q90 0 130 40.5t56 131.5l178 1016h230l-174 -993q-16 -94 -45 -162.5t-79 -123t-129 -82.5t-188 -28q-172 0 -255 77.5t-83 217.5zM506 1604q141 92 244 174l104 -168 q-44 -28 -84.5 -51.5t-95 -53t-82.5 -45.5z" />
<glyph unicode="&#xdb;" horiz-adv-x="966" d="M63 270q0 46 9 99l174 995h229l-176 -1006q-6 -40 -6 -67q0 -59 29.5 -87t99.5 -28q90 0 130 40.5t56 131.5l178 1016h230l-174 -993q-16 -94 -45 -162.5t-79 -123t-129 -82.5t-188 -28q-172 0 -255 77.5t-83 217.5zM422 1581q223 154 283 197q73 -84 206 -203l-108 -115 l-129 101l-176 -101z" />
<glyph unicode="&#xdc;" horiz-adv-x="966" d="M63 270q0 46 9 99l174 995h229l-176 -1006q-6 -40 -6 -67q0 -59 29.5 -87t99.5 -28q90 0 130 40.5t56 131.5l178 1016h230l-174 -993q-16 -94 -45 -162.5t-79 -123t-129 -82.5t-188 -28q-172 0 -255 77.5t-83 217.5zM403 1505l39 234h195l-39 -234h-195zM698 1505l39 234 h195l-39 -234h-195z" />
<glyph unicode="&#xdd;" horiz-adv-x="813" d="M147 1364h246l56 -571l247 571h265l-443 -848l-90 -516h-229l92 526zM412 1604q135 89 243 174l105 -168q-44 -28 -84.5 -51.5t-95 -53t-82.5 -45.5z" />
<glyph unicode="&#xde;" horiz-adv-x="915" d="M10 0l240 1364h229l-43 -246h180q145 0 219 -65.5t74 -192.5q0 -50 -8 -94l-27 -152q-15 -84 -40 -143t-70 -106t-118 -70t-175 -23h-184l-47 -272h-230zM322 471h163q73 0 110.5 35t49.5 108l29 162q4 23 4 49q0 50 -27.5 72.5t-85.5 22.5h-164z" />
<glyph unicode="&#xdf;" horiz-adv-x="948" d="M-133 -301q71 90 97 138.5t42 137.5l191 1084q32 186 125.5 267t279.5 81q151 0 233.5 -70t82.5 -182q0 -62 -15.5 -115t-34.5 -87.5t-63 -104.5q-10 -16 -29.5 -45.5t-26.5 -41t-17 -30t-13.5 -30.5t-3.5 -25q0 -28 12.5 -53.5t54.5 -73.5q56 -63 79.5 -115t23.5 -110 q0 -30 -8 -80q-46 -256 -295 -256q-124 0 -209 32l33 177q68 -25 145 -25q53 0 78 20.5t33 63.5q2 10 2 18.5t-1.5 16.5t-4 15t-7.5 15t-10 15t-13.5 17t-15.5 18t-19 22t-22 25q-53 63 -72.5 104.5t-19.5 102.5q0 30 5 57t19.5 58t21 44.5t31 52t28.5 44.5q8 13 26 41 t26 40.5t20 35.5t17.5 38t10 35.5t4.5 40.5q0 42 -25.5 72t-84.5 30q-69 0 -105 -35.5t-51 -119.5l-193 -1094q-23 -128 -63 -203.5t-152 -185.5z" />
<glyph unicode="&#xe0;" horiz-adv-x="835" d="M20 168q0 17 7 57l82 463q21 121 58.5 188.5t111 101.5t196.5 34q164 0 346 -105l-159 -907h-187l-2 106q-126 -126 -264 -126q-89 0 -139 50t-50 138zM258 256q-14 -80 55 -80q79 0 168 78l97 547q-52 18 -107 18q-73 0 -99 -30t-38 -101zM346 1296l135 154 q85 -94 209 -199l-117 -139q-149 110 -227 184z" />
<glyph unicode="&#xe1;" horiz-adv-x="835" d="M20 168q0 17 7 57l82 463q21 121 58.5 188.5t111 101.5t196.5 34q164 0 346 -105l-159 -907h-187l-2 106q-126 -126 -264 -126q-89 0 -139 50t-50 138zM258 256q-14 -80 55 -80q79 0 168 78l97 547q-52 18 -107 18q-73 0 -99 -30t-38 -101zM356 1255q90 59 262 193 l105 -168q-126 -81 -281 -168z" />
<glyph unicode="&#xe2;" horiz-adv-x="835" d="M20 168q0 17 7 57l82 463q21 121 58.5 188.5t111 101.5t196.5 34q164 0 346 -105l-159 -907h-187l-2 106q-126 -126 -264 -126q-89 0 -139 50t-50 138zM258 256q-14 -80 55 -80q79 0 168 78l97 547q-52 18 -107 18q-73 0 -99 -30t-38 -101zM305 1233q51 40 138 105 t145 110q99 -119 200 -223l-114 -113l-117 119l-164 -119z" />
<glyph unicode="&#xe3;" horiz-adv-x="835" d="M20 168q0 17 7 57l82 463q21 121 58.5 188.5t111 101.5t196.5 34q164 0 346 -105l-159 -907h-187l-2 106q-126 -126 -264 -126q-89 0 -139 50t-50 138zM258 256q-14 -80 55 -80q79 0 168 78l97 547q-52 18 -107 18q-73 0 -99 -30t-38 -101zM270 1231q31 46 44.5 65 t35 45.5t36 36.5t35 17.5t44.5 7.5q30 0 51 -9t62 -34q4 -3 13.5 -8.5t12 -7t9.5 -5.5t9 -5t7.5 -3.5t8 -3t7 -1.5t8.5 -1h9q20 0 33 11t42 48l105 -71q-8 -12 -26.5 -38.5t-25.5 -36t-22 -28t-25 -25.5t-25 -16.5t-30.5 -12.5t-34.5 -3q-53 0 -116 39q-9 5 -21 13t-17.5 11 t-13 7t-13.5 5t-13 1t-13 -1t-11.5 -5t-10 -7t-11 -11t-11 -13t-14 -17t-15.5 -20z" />
<glyph unicode="&#xe4;" horiz-adv-x="835" d="M20 168q0 17 7 57l82 463q21 121 58.5 188.5t111 101.5t196.5 34q164 0 346 -105l-159 -907h-187l-2 106q-126 -126 -264 -126q-89 0 -139 50t-50 138zM258 256q-14 -80 55 -80q79 0 168 78l97 547q-52 18 -107 18q-73 0 -99 -30t-38 -101zM305 1151l39 233h191l-39 -233 h-191zM596 1151l39 233h190l-39 -233h-190z" />
<glyph unicode="&#xe5;" horiz-adv-x="835" d="M20 168q0 17 7 57l82 463q21 121 58.5 188.5t111 101.5t196.5 34q164 0 346 -105l-159 -907h-187l-2 106q-126 -126 -264 -126q-89 0 -139 50t-50 138zM258 256q-14 -80 55 -80q79 0 168 78l97 547q-52 18 -107 18q-73 0 -99 -30t-38 -101zM381 1268q0 84 50 137t144 53 q69 0 109.5 -36.5t40.5 -98.5q0 -88 -52.5 -140.5t-142.5 -52.5q-71 0 -110 38t-39 100zM489 1276q0 -24 14 -38.5t40 -14.5q35 0 54 25t19 63q0 55 -53 55q-37 0 -55.5 -25t-18.5 -65z" />
<glyph unicode="&#xe6;" horiz-adv-x="1171" d="M0 205q0 26 8 84q27 155 98.5 215.5t208.5 60.5h191l20 121q4 28 4 41q0 46 -27 67t-85 21q-120 0 -230 -35l-4 185q136 47 273 47q72 0 122.5 -21.5t96.5 -70.5q60 51 115 71.5t124 20.5q123 0 186.5 -66t63.5 -176q0 -165 -119 -257t-348 -132l-24 -137q-13 -78 69 -78 t277 90l45 -174q-113 -55 -195.5 -78.5t-171.5 -23.5q-71 0 -110.5 24t-61.5 72q-153 -96 -311 -96q-110 0 -162.5 60t-52.5 165zM223 242q0 -74 80 -74q67 0 139 43l31 176h-123q-59 0 -86 -23.5t-37 -84.5q-4 -28 -4 -37zM731 571q130 22 175.5 60t45.5 123q0 75 -71 75 q-54 0 -84.5 -31.5t-42.5 -99.5z" />
<glyph unicode="&#xe7;" horiz-adv-x="618" d="M14 190q0 46 6 76l80 455q27 154 110.5 222.5t227.5 68.5q125 0 215 -37l-35 -182q-79 22 -151 22q-66 0 -100 -24.5t-45 -94.5l-78 -442q-7 -38 5.5 -59t55.5 -21q74 0 209 41l14 -180q-100 -40 -221 -53l-26 -86q137 0 137 -119q0 -91 -54 -135.5t-149 -44.5 q-69 0 -145 26l26 105q62 -25 111 -25q35 0 55.5 14t20.5 41q0 49 -58 49q-17 0 -41 -4l-43 25l52 158q-179 26 -179 204z" />
<glyph unicode="&#xe8;" horiz-adv-x="741" d="M16 201q0 27 7 67l73 418q57 326 373 326q127 0 196.5 -64t69.5 -172q0 -71 -21.5 -126.5t-66.5 -96.5t-101 -71t-138 -60l-142 -51l-22 -127q-13 -78 69 -78t277 90l45 -174q-113 -55 -195.5 -78.5t-171.5 -23.5q-124 0 -188 58t-64 163zM279 1296l135 154 q85 -94 209 -199l-117 -139q-149 110 -227 184zM301 571q49 19 84 33q73 31 105 65.5t32 84.5q0 75 -71 75q-54 0 -84.5 -31.5t-42.5 -99.5z" />
<glyph unicode="&#xe9;" horiz-adv-x="741" d="M16 201q0 27 7 67l73 418q57 326 373 326q127 0 196.5 -64t69.5 -172q0 -71 -21.5 -126.5t-66.5 -96.5t-101 -71t-138 -60l-142 -51l-22 -127q-13 -78 69 -78t277 90l45 -174q-113 -55 -195.5 -78.5t-171.5 -23.5q-124 0 -188 58t-64 163zM293 1255q90 59 262 193 l104 -168q-133 -86 -280 -168zM301 571q49 19 84 33q73 31 105 65.5t32 84.5q0 75 -71 75q-54 0 -84.5 -31.5t-42.5 -99.5z" />
<glyph unicode="&#xea;" horiz-adv-x="741" d="M16 201q0 27 7 67l73 418q57 326 373 326q127 0 196.5 -64t69.5 -172q0 -71 -21.5 -126.5t-66.5 -96.5t-101 -71t-138 -60l-142 -51l-22 -127q-13 -78 69 -78t277 90l45 -174q-113 -55 -195.5 -78.5t-171.5 -23.5q-124 0 -188 58t-64 163zM266 1233q51 40 138 105 t145 110q93 -112 201 -223l-115 -113l-117 119l-164 -119zM301 571q49 19 84 33q73 31 105 65.5t32 84.5q0 75 -71 75q-54 0 -84.5 -31.5t-42.5 -99.5z" />
<glyph unicode="&#xeb;" horiz-adv-x="741" d="M16 201q0 27 7 67l73 418q57 326 373 326q127 0 196.5 -64t69.5 -172q0 -71 -21.5 -126.5t-66.5 -96.5t-101 -71t-138 -60l-142 -51l-22 -127q-13 -78 69 -78t277 90l45 -174q-113 -55 -195.5 -78.5t-171.5 -23.5q-124 0 -188 58t-64 163zM248 1151l39 233h190l-39 -233 h-190zM301 571q49 19 84 33q73 31 105 65.5t32 84.5q0 75 -71 75q-54 0 -84.5 -31.5t-42.5 -99.5zM539 1151l39 233h190l-39 -233h-190z" />
<glyph unicode="&#xec;" d="M0 0l172 971l231 37l-178 -1008h-225zM115 1296l135 154q85 -94 209 -199l-117 -139q-149 110 -227 184z" />
<glyph unicode="&#xed;" d="M0 0l172 971l231 37l-178 -1008h-225zM154 1255q90 59 262 193l104 -168q-133 -86 -280 -168z" />
<glyph unicode="&#xee;" d="M0 0l172 971l231 37l-178 -1008h-225zM88 1233q51 40 138 105t145 110q99 -119 200 -223l-114 -113l-117 119l-164 -119z" />
<glyph unicode="&#xef;" d="M0 0l172 971l231 37l-178 -1008h-225zM84 1151l39 233h190l-39 -233h-190zM375 1151l39 233h190l-39 -233h-190z" />
<glyph unicode="&#xf0;" horiz-adv-x="866" d="M37 250q0 42 6 76l51 290q30 164 114.5 234t229.5 70q115 0 195 -58q6 40 6 76q0 116 -59 180l-291 -139l-37 92l246 119q-51 30 -100 46t-126 28l78 184q113 -19 198.5 -52t166.5 -98l184 88l39 -94l-152 -73q74 -109 74 -277q0 -68 -12 -139l-82 -465 q-30 -168 -128.5 -265.5t-277.5 -97.5q-156 0 -239.5 73t-83.5 202zM262 268q0 -104 113 -104q78 0 114.5 42t49.5 120l63 360q-67 41 -137 41q-69 0 -102 -24t-46 -97l-49 -280q-6 -38 -6 -58z" />
<glyph unicode="&#xf1;" horiz-adv-x="849" d="M0 0l170 971l192 37l5 -105q67 47 146.5 78t148.5 31q82 0 120.5 -45t38.5 -123q0 -18 -6 -53l-139 -791h-225l133 756q9 59 -43 59q-62 0 -185 -70l-131 -745h-225zM258 1231q31 46 44.5 65t35 45.5t36 36.5t35 17.5t44.5 7.5q30 0 50.5 -9t61.5 -34q4 -3 13.5 -8.5 t12 -7t9.5 -5.5t9 -5t7.5 -3.5t8 -3t7 -1.5t8.5 -1h9q21 0 34.5 11t41.5 48l104 -71q-8 -11 -30.5 -44t-29 -41.5t-25 -29t-30.5 -26.5t-31.5 -12.5t-41.5 -6.5q-54 0 -117 39q-9 5 -21 13t-17.5 11t-13 7t-13.5 5t-13 1t-13 -1t-11.5 -5t-10 -7t-11 -11t-11 -13t-14 -17 t-15.5 -20z" />
<glyph unicode="&#xf2;" horiz-adv-x="831" d="M23 262q0 40 6 74l61 350q29 168 124 247t271 79q154 0 235 -75.5t81 -205.5q0 -39 -6 -80l-60 -340q-30 -167 -125.5 -249t-277.5 -82q-145 0 -227 76t-82 206zM246 274q0 -102 110 -102q70 0 104.5 33t45.5 98l65 371q4 24 4 41q0 104 -112 104q-63 0 -99 -30t-49 -105 l-65 -371q-4 -24 -4 -39zM330 1296l135 154q85 -94 209 -199l-117 -139q-149 110 -227 184z" />
<glyph unicode="&#xf3;" horiz-adv-x="831" d="M23 262q0 40 6 74l61 350q29 168 124 247t271 79q154 0 235 -75.5t81 -205.5q0 -39 -6 -80l-60 -340q-30 -167 -125.5 -249t-277.5 -82q-145 0 -227 76t-82 206zM246 274q0 -102 110 -102q70 0 104.5 33t45.5 98l65 371q4 24 4 41q0 104 -112 104q-63 0 -99 -30t-49 -105 l-65 -371q-4 -24 -4 -39zM346 1255q90 59 262 193l105 -168q-126 -81 -281 -168z" />
<glyph unicode="&#xf4;" horiz-adv-x="831" d="M23 262q0 40 6 74l61 350q29 168 124 247t271 79q154 0 235 -75.5t81 -205.5q0 -39 -6 -80l-60 -340q-30 -167 -125.5 -249t-277.5 -82q-145 0 -227 76t-82 206zM246 274q0 -102 110 -102q70 0 104.5 33t45.5 98l65 371q4 24 4 41q0 104 -112 104q-63 0 -99 -30t-49 -105 l-65 -371q-4 -24 -4 -39zM287 1233q52 40 138.5 105.5t143.5 109.5q93 -112 201 -223l-115 -113l-116 119l-164 -119z" />
<glyph unicode="&#xf5;" horiz-adv-x="831" d="M23 262q0 40 6 74l61 350q29 168 124 247t271 79q154 0 235 -75.5t81 -205.5q0 -39 -6 -80l-60 -340q-30 -167 -125.5 -249t-277.5 -82q-145 0 -227 76t-82 206zM246 274q0 -102 110 -102q70 0 104.5 33t45.5 98l65 371q4 24 4 41q0 104 -112 104q-63 0 -99 -30t-49 -105 l-65 -371q-4 -24 -4 -39zM256 1231q31 46 44.5 65t35 45.5t36 36.5t35 17.5t44.5 7.5q30 0 50.5 -9t61.5 -34q4 -3 13.5 -8.5t12 -7t9.5 -5.5t9 -5t7.5 -3.5t8 -3t7 -1.5t8.5 -1h9q21 0 34.5 11t41.5 48l104 -71q-8 -11 -30.5 -44t-29 -41.5t-25 -29t-30.5 -26.5 t-31.5 -12.5t-41.5 -6.5q-54 0 -117 39q-9 5 -21 13t-17.5 11t-13 7t-13.5 5t-13 1t-13 -1t-11.5 -5t-10 -7t-11 -11t-11 -13t-14 -17t-15.5 -20z" />
<glyph unicode="&#xf6;" horiz-adv-x="831" d="M23 262q0 40 6 74l61 350q29 168 124 247t271 79q154 0 235 -75.5t81 -205.5q0 -39 -6 -80l-60 -340q-30 -167 -125.5 -249t-277.5 -82q-145 0 -227 76t-82 206zM246 274q0 -102 110 -102q70 0 104.5 33t45.5 98l65 371q4 24 4 41q0 104 -112 104q-63 0 -99 -30t-49 -105 l-65 -371q-4 -24 -4 -39zM283 1151l39 233h190l-39 -233h-190zM573 1151l39 233h191l-39 -233h-191z" />
<glyph unicode="&#xf7;" horiz-adv-x="972" d="M143 602v197h754v-197h-754zM410 231v238h221v-238h-221zM410 932v237h221v-237h-221z" />
<glyph unicode="&#xf8;" horiz-adv-x="837" d="M-37 -51l109 149q-45 62 -45 164q0 40 6 74l61 350q29 168 124 247t271 79q124 0 207 -54l103 142l67 -53l-108 -150q47 -68 47 -166q0 -39 -6 -80l-60 -340q-30 -167 -125.5 -249t-277.5 -82q-123 0 -203 55l-100 -137zM262 215q25 -43 98 -43q70 0 104.5 33t45.5 98 l59 334zM262 360l301 416q-24 43 -96 43q-63 0 -99 -30t-49 -105z" />
<glyph unicode="&#xf9;" horiz-adv-x="841" d="M18 147q0 14 7 54l137 782l227 14l-133 -761q-9 -60 43 -60q55 0 176 70l131 737l225 14l-174 -997h-188l-4 88q-154 -108 -287 -108q-83 0 -121.5 44.5t-38.5 122.5zM330 1296l135 154q85 -94 209 -199l-117 -139q-149 110 -227 184z" />
<glyph unicode="&#xfa;" horiz-adv-x="841" d="M18 147q0 14 7 54l137 782l227 14l-133 -761q-9 -60 43 -60q55 0 176 70l131 737l225 14l-174 -997h-188l-4 88q-154 -108 -287 -108q-83 0 -121.5 44.5t-38.5 122.5zM358 1255q96 63 263 193l104 -168q-126 -81 -281 -168z" />
<glyph unicode="&#xfb;" horiz-adv-x="841" d="M18 147q0 14 7 54l137 782l227 14l-133 -761q-9 -60 43 -60q55 0 176 70l131 737l225 14l-174 -997h-188l-4 88q-154 -108 -287 -108q-83 0 -121.5 44.5t-38.5 122.5zM297 1233q51 40 138 105t145 110q99 -119 200 -223l-114 -113l-117 119l-164 -119z" />
<glyph unicode="&#xfc;" horiz-adv-x="841" d="M18 147q0 14 7 54l137 782l227 14l-133 -761q-9 -60 43 -60q55 0 176 70l131 737l225 14l-174 -997h-188l-4 88q-154 -108 -287 -108q-83 0 -121.5 44.5t-38.5 122.5zM289 1151l39 233h190l-39 -233h-190zM580 1151l38 233h191l-39 -233h-190z" />
<glyph unicode="&#xfd;" horiz-adv-x="727" d="M-20 -279q75 45 113 73.5t75.5 78.5t69.5 127h-58l-110 965l223 36l61 -768q93 305 142 465q28 95 28 164q0 54 -8 109l223 37q17 -69 17 -136q0 -95 -37 -192l-250 -680q-71 -181 -150 -267.5t-251 -176.5zM264 1255q90 59 262 193l105 -168q-126 -81 -281 -168z" />
<glyph unicode="&#xfe;" horiz-adv-x="866" d="M-78 -438l326 1843l231 35l-92 -520q102 92 240 92q99 0 153 -51t54 -142q0 -23 -7 -63l-86 -488q-28 -157 -104 -222.5t-199 -65.5q-120 0 -207 55l-77 -438zM260 199q67 -23 123 -23q66 0 95.5 23.5t41.5 91.5l78 442q7 37 -8 60.5t-55 23.5q-81 0 -181 -80z" />
<glyph unicode="&#xff;" horiz-adv-x="727" d="M-20 -279q75 45 113 73.5t75.5 78.5t69.5 127h-58l-110 965l223 36l61 -768q93 305 142 465q28 95 28 164q0 54 -8 109l223 37q17 -69 17 -136q0 -95 -37 -192l-250 -680q-71 -181 -150 -267.5t-251 -176.5zM199 1151l39 233h190l-39 -233h-190zM489 1151l39 233h191 l-39 -233h-191z" />
<glyph unicode="&#x152;" horiz-adv-x="1370" d="M43 309q0 44 10 99l103 577q35 194 141.5 286.5t312.5 92.5h836l-35 -201h-424l-65 -370h387l-37 -201h-387l-68 -391h424l-35 -201h-813q-175 0 -262.5 84t-87.5 225zM272 328q0 -66 33 -96.5t111 -30.5h172l168 962h-170q-87 0 -135.5 -41.5t-65.5 -136.5l-106 -600 q-7 -44 -7 -57z" />
<glyph unicode="&#x153;" horiz-adv-x="1218" d="M23 262q0 40 6 74l61 350q29 168 119 247t252 79q72 0 135 -27t100 -72q105 99 250 99q127 0 196.5 -64t69.5 -172q0 -71 -21.5 -126.5t-66.5 -96.5t-101 -71t-138 -60l-142 -51l-22 -127q-13 -78 70 -78q81 0 276 90l45 -174q-113 -55 -190.5 -78.5t-155.5 -23.5 q-126 0 -209 77q-93 -77 -229 -77q-149 0 -227 75t-78 207zM246 274q0 -102 110 -102q70 0 104.5 33t45.5 98l65 371q4 24 4 41q0 104 -112 104q-63 0 -99 -30t-49 -105l-65 -371q-4 -24 -4 -39zM778 571q49 19 84 33q73 31 105 65.5t32 84.5q0 75 -71 75q-54 0 -84.5 -31.5 t-42.5 -99.5z" />
<glyph unicode="&#x178;" horiz-adv-x="813" d="M147 1364h246l56 -571l247 571h265l-443 -848l-90 -516h-229l92 526zM315 1505l39 234h195l-39 -234h-195zM610 1505l39 234h195l-39 -234h-195z" />
<glyph unicode="&#x2c6;" horiz-adv-x="872" d="M283 1233q52 40 138.5 105.5t143.5 109.5q93 -112 201 -223l-115 -113l-116 119l-164 -119z" />
<glyph unicode="&#x2dc;" horiz-adv-x="944" d="M274 1231q31 46 44.5 65t35 45.5t36 36.5t35 17.5t44.5 7.5q30 0 51 -9t62 -34q4 -3 13.5 -8.5t12 -7t9.5 -5.5t9 -5t7.5 -3.5t8 -3t7 -1.5t8.5 -1h9q20 0 33 11t42 48l105 -71q-8 -12 -26.5 -38.5t-25.5 -36t-22 -28t-25 -25.5t-25 -16.5t-30.5 -12.5t-34.5 -3 q-53 0 -116 39q-9 5 -21 13t-17.5 11t-13 7t-13.5 5t-13 1t-13 -1t-11.5 -5t-10 -7t-11 -11t-11 -13t-14 -17t-15.5 -20z" />
<glyph unicode="&#x2000;" horiz-adv-x="889" />
<glyph unicode="&#x2001;" horiz-adv-x="1778" />
<glyph unicode="&#x2002;" horiz-adv-x="889" />
<glyph unicode="&#x2003;" horiz-adv-x="1778" />
<glyph unicode="&#x2004;" horiz-adv-x="592" />
<glyph unicode="&#x2005;" horiz-adv-x="444" />
<glyph unicode="&#x2006;" horiz-adv-x="296" />
<glyph unicode="&#x2007;" horiz-adv-x="296" />
<glyph unicode="&#x2008;" horiz-adv-x="222" />
<glyph unicode="&#x2009;" horiz-adv-x="355" />
<glyph unicode="&#x200a;" horiz-adv-x="98" />
<glyph unicode="&#x2010;" horiz-adv-x="593" d="M98 567l35 199h410l-35 -199h-410z" />
<glyph unicode="&#x2011;" horiz-adv-x="593" d="M98 567l35 199h410l-35 -199h-410z" />
<glyph unicode="&#x2012;" horiz-adv-x="593" d="M98 567l35 199h410l-35 -199h-410z" />
<glyph unicode="&#x2013;" horiz-adv-x="929" d="M98 567l35 199h746l-35 -199h-746z" />
<glyph unicode="&#x2014;" horiz-adv-x="1271" d="M98 567l35 199h1088l-35 -199h-1088z" />
<glyph unicode="&#x2018;" horiz-adv-x="399" d="M147 852l48 272l165 269l91 -50l-107 -221h76l-47 -270h-226z" />
<glyph unicode="&#x2019;" horiz-adv-x="399" d="M152 872l106 222h-76l47 270h226l-47 -272l-166 -269z" />
<glyph unicode="&#x201a;" horiz-adv-x="399" d="M-39 -221l107 221h-76l47 270h225l-47 -272l-166 -268z" />
<glyph unicode="&#x201c;" horiz-adv-x="737" d="M147 852l48 272l165 269l91 -50l-107 -221h76l-47 -270h-226zM485 852l47 272l166 269l90 -50l-106 -221h76l-47 -270h-226z" />
<glyph unicode="&#x201d;" horiz-adv-x="737" d="M152 872l106 222h-76l47 270h226l-47 -272l-166 -269zM489 872l107 222h-76l47 270h226l-48 -272l-165 -269z" />
<glyph unicode="&#x201e;" horiz-adv-x="737" d="M-39 -221l107 221h-76l47 270h225l-47 -272l-166 -268zM299 -221l107 221h-76l47 270h225l-47 -272l-166 -268z" />
<glyph unicode="&#x2022;" horiz-adv-x="724" d="M129 627q0 134 79.5 214.5t213.5 80.5q103 0 161 -59t58 -154q0 -134 -80.5 -220t-210.5 -86q-106 0 -163.5 63.5t-57.5 160.5z" />
<glyph unicode="&#x2026;" horiz-adv-x="1228" d="M0 0l47 270h225l-47 -270h-225zM410 0l47 270h225l-47 -270h-225zM819 0l47 270h226l-48 -270h-225z" />
<glyph unicode="&#x202f;" horiz-adv-x="355" />
<glyph unicode="&#x2039;" horiz-adv-x="612" d="M94 541l297 417l158 -116l-227 -312l129 -329l-191 -78z" />
<glyph unicode="&#x203a;" horiz-adv-x="612" d="M68 240l227 311l-129 330l190 77l166 -417l-297 -418z" />
<glyph unicode="&#x205f;" horiz-adv-x="444" />
<glyph unicode="&#x20ac;" horiz-adv-x="886" d="M59 422l31 176h125l29 166h-125l31 176h124l15 84q35 196 128 280.5t269 84.5q138 0 252 -43l-43 -183q-95 31 -184 31q-97 0 -138.5 -36t-58.5 -134l-14 -84h325l-30 -176h-326l-29 -166h326l-31 -176h-327l-15 -86q-15 -87 14.5 -126.5t135.5 -39.5q94 0 182 23 l-6 -189q-116 -29 -238 -29q-179 0 -261.5 95t-51.5 268l14 84h-123z" />
<glyph unicode="&#x2122;" horiz-adv-x="921" d="M193 1270v94h323v-94h-108v-312h-107v312h-108zM569 958l13 406h100l100 -248l101 248h100l12 -406h-96l-4 211l-64 -159h-98l-63 159l-4 -211h-97z" />
<glyph unicode="&#xe000;" horiz-adv-x="1003" d="M0 0v1004h1004v-1004h-1004z" />
</font>
</defs>
</svg>
