<?xml version="1.0" standalone="no"?>
<!DOCTYPE svg PUBLIC "-//W3C//DTD SVG 1.1//EN" "http://www.w3.org/Graphics/SVG/1.1/DTD/svg11.dtd" >
<svg xmlns="http://www.w3.org/2000/svg">
<metadata>
This is a custom SVG webfont generated by Font Squirrel.
Copyright   : Copyright 2006 Process Type Foundry All rights reserved
Designer    : Eric Olson
Foundry     : Eric Olson
Foundry URL : httpwwwprocesstypefoundrycom
</metadata>
<defs>
<font id="KlavikaCHRegularCondensed" horiz-adv-x="385" >
<font-face units-per-em="2048" ascent="1536" descent="-512" />
<missing-glyph horiz-adv-x="382" />
<glyph unicode=" "  horiz-adv-x="382" />
<glyph unicode="&#x09;" horiz-adv-x="382" />
<glyph unicode="&#xa0;" horiz-adv-x="382" />
<glyph unicode="!" horiz-adv-x="405" d="M123 0v209h160v-209h-160zM123 709v655h160v-655l-35 -344h-90z" />
<glyph unicode="&#x22;" horiz-adv-x="669" d="M113 858v506h139v-506h-139zM418 858v506h139v-506h-139z" />
<glyph unicode="#" horiz-adv-x="1081" d="M92 403l6 123h164l17 342h-166l6 123h166l18 373h135l-18 -373h266l19 373h135l-19 -373h158l-6 -123h-158l-16 -342h159l-6 -123h-159l-21 -403h-135l20 403h-266l-20 -403h-135l20 403h-164zM397 526h267l16 342h-266z" />
<glyph unicode="$" horiz-adv-x="802" d="M96 1014q0 301 246 336v204h145v-200q76 0 183 -33l-19 -137q-109 33 -211 33q-96 0 -140 -43.5t-44 -151.5q0 -115 24.5 -148.5t151.5 -93.5q129 -61 182.5 -102t77 -106.5t23.5 -194.5q0 -311 -254 -363v-204h-144v198q-119 10 -204 41l20 139q123 -41 223 -41 q109 0 154 49.5t45 159.5q0 133 -29.5 176t-173.5 105q-170 74 -213 141.5t-43 235.5z" />
<glyph unicode="%" horiz-adv-x="1468" d="M102 887v243q0 121 63.5 190t184.5 69t184.5 -69t63.5 -190v-243q0 -121 -63.5 -189.5t-184.5 -68.5t-184.5 68.5t-63.5 189.5zM238 883q0 -135 112.5 -135t112.5 135v252q0 135 -112.5 135t-112.5 -135v-252zM442 20l449 1369l127 -50l-451 -1364zM860 238v243 q0 121 63.5 189.5t184.5 68.5t184.5 -68.5t63.5 -189.5v-243q0 -121 -63.5 -189.5t-184.5 -68.5t-184.5 68.5t-63.5 189.5zM995 233q0 -135 113 -135t113 135v252q0 135 -113 135.5t-113 -135.5v-252z" />
<glyph unicode="&#x26;" horiz-adv-x="1099" d="M113 258v80q0 80 24.5 137t54 87t103.5 93l47 39q-12 16 -44 55l-43 52l-32.5 43.5t-30 47t-19.5 44.5t-14 52.5t-3 53.5v70q0 129 83 200.5t226 71.5q293 0 293 -276v-68q0 -92 -33 -162.5t-117 -138.5l-67 -55l213 -264l135 239l117 -73l-162 -279l250 -307h-189 l-141 174q-72 -94 -144.5 -144t-193.5 -50q-313 -1 -313 278zM268 256q0 -80 40 -111.5t122 -31.5q74 0 117 31.5t98 105.5l27 35l-242 301l-60 -54q-44 -39 -57.5 -54t-29 -51t-15.5 -79v-92zM309 1038q0 -68 66 -147l82 -105l75 68q45 39 61.5 80t16.5 104v86 q0 131 -145 131q-82 0 -119 -37.5t-37 -93.5v-86z" />
<glyph unicode="'" horiz-adv-x="364" d="M113 858v506h139v-506h-139z" />
<glyph unicode="(" horiz-adv-x="600" d="M143 680q0 485 283 958l119 -65q-135 -260 -188.5 -466t-53.5 -427t53.5 -427t188.5 -466l-119 -66q-283 474 -283 959z" />
<glyph unicode=")" horiz-adv-x="600" d="M55 -213q135 260 188.5 466t53.5 427t-53.5 427t-188.5 466l119 65q283 -473 283 -958t-283 -959z" />
<glyph unicode="*" horiz-adv-x="774" d="M82 1069v92h225l-112 193l79 47l113 -195l115 195l80 -47l-115 -193h225v-92h-225l113 -192l-78 -48l-115 193l-113 -193l-77 48l112 192h-227z" />
<glyph unicode="+" horiz-adv-x="962" d="M113 637v131h295v360h147v-360h295v-131h-295v-361h-147v361h-295z" />
<glyph unicode="," d="M88 -213l78 213h-53v209h159v-209l-110 -246z" />
<glyph unicode="-" horiz-adv-x="628" d="M113 594v139h403v-139h-403z" />
<glyph unicode="." d="M113 0v209h159v-209h-159z" />
<glyph unicode="/" horiz-adv-x="768" d="M92 -240l430 1624h154l-430 -1624h-154z" />
<glyph unicode="0" horiz-adv-x="937" d="M113 328v708q0 166 89 259.5t267 93.5t267 -93.5t89 -259.5v-708q0 -166 -89 -259.5t-267 -93.5t-267 93.5t-89 259.5zM272 328q0 -109 45 -161t151.5 -52t152 52t45.5 161v708q0 109 -45.5 161t-152 52t-151.5 -52t-45 -161v-708z" />
<glyph unicode="1" horiz-adv-x="579" d="M31 1122l280 242h135v-1364h-159v1155l-176 -139z" />
<glyph unicode="2" horiz-adv-x="802" d="M82 0v127l301 448q98 143 125 214t27 200v70q0 106 -41 148t-148 42q-98 0 -213 -45l-29 135q121 49 273 50q164 0 240.5 -76t76.5 -244v-92q0 -139 -34.5 -231.5t-133.5 -233.5l-272 -369h453v-143h-625z" />
<glyph unicode="3" horiz-adv-x="794" d="M80 12l16 138q115 -35 228 -35q121 0 164.5 49t43.5 147v125q0 96 -45 141.5t-143 45.5h-178v139h156q193 0 192 180v135q0 94 -43 133t-137 39q-104 0 -217 -32l-23 133q117 39 262 39q168 0 243 -74t75 -228v-131q0 -96 -36 -157.5t-134 -100.5q188 -25 188 -252v-145 q0 -152 -89 -239t-269 -87q-133 0 -254 37z" />
<glyph unicode="4" horiz-adv-x="897" d="M61 354v135l433 875h198v-875h139v-135h-139v-354h-155v354h-476zM211 489h326v689z" />
<glyph unicode="5" horiz-adv-x="821" d="M113 4l16 141q104 -31 213 -30q125 0 178 53t53 162v98q0 113 -49 153t-170 40h-227v743h559v-139h-399v-465h108q172 0 255 -77t83 -243v-112q0 -162 -93 -257.5t-290 -95.5q-118 0 -237 29z" />
<glyph unicode="6" horiz-adv-x="899" d="M113 313v648q0 217 101 322.5t310 105.5q127 0 213 -31l-18 -135q-90 27 -172 26q-141 0 -208 -59.5t-67 -226.5v-234q104 55 242 55q293 0 293 -305v-168q0 -158 -93 -247t-259 -89q-164 0 -253 88t-89 250zM272 305q0 -102 45 -147t138 -45q94 0 143 44t49 146v174 q0 92 -39 131t-133 39q-106 0 -203 -53v-289z" />
<glyph unicode="7" horiz-adv-x="806" d="M92 1221v143h653v-129l-430 -1235h-170l445 1221h-498z" />
<glyph unicode="8" horiz-adv-x="925" d="M109 299v76q0 119 52 191.5t158 133.5q-104 72 -143 137.5t-39 163.5v78q0 152 84 231t242 79t241.5 -79t83.5 -231v-78q0 -98 -38.5 -163.5t-143.5 -137.5q106 -61 158.5 -133.5t52.5 -191.5v-76q0 -156 -91 -240t-263 -84t-263 84t-91 240zM268 297q0 -100 48.5 -143 t146.5 -43t146 43t48 143v72q0 90 -39.5 141t-154.5 117q-115 -66 -155 -117t-40 -141v-72zM295 999q0 -80 35 -124t133 -111q98 68 133 112t35 123v84q0 174 -168 174t-168 -174v-84z" />
<glyph unicode="9" horiz-adv-x="890" d="M84 885v168q0 164 91 250t261 86q342 0 342 -338v-648q0 -219 -100 -323.5t-311 -104.5q-104 0 -213 31l18 135q90 -27 172 -26q141 0 207.5 59t66.5 227v234q-104 -55 -241 -55q-293 0 -293 305zM244 887q0 -92 40 -131t132 -39q106 0 202 53v289q0 102 -45 147t-137 45 q-193 0 -192 -190v-174z" />
<glyph unicode=":" horiz-adv-x="405" d="M123 0v209h160v-209h-160zM123 651v209h160v-209h-160z" />
<glyph unicode=";" horiz-adv-x="405" d="M98 -213l78 213h-53v209h160v-209l-111 -246zM123 651v209h160v-209h-160z" />
<glyph unicode="&#x3c;" horiz-adv-x="983" d="M123 627v151l678 361l59 -123l-606 -314l606 -313l-59 -123z" />
<glyph unicode="=" horiz-adv-x="1003" d="M133 453v129h737v-129h-737zM133 823v129h737v-129h-737z" />
<glyph unicode="&#x3e;" horiz-adv-x="983" d="M123 389l606 313l-606 314l59 123l678 -361v-151l-678 -361z" />
<glyph unicode="?" horiz-adv-x="741" d="M102 1348q115 41 258 41q152 0 225.5 -70t73.5 -225v-90q0 -127 -29.5 -191.5t-125.5 -161.5l-207 -200l-100 108l190 197q70 74 91.5 119t21.5 137v71q0 88 -37 125t-129 37t-207 -37zM209 0v209h160v-209h-160z" />
<glyph unicode="@" horiz-adv-x="1290" d="M102 639q0 332 172 541t449 209q238 0 362.5 -139.5t124.5 -362.5q0 -217 -88 -346t-237 -129q-102 0 -150 57q-86 -57 -182 -57q-70 0 -100.5 43t-18.5 104l49 279q14 88 60.5 124.5t138.5 36.5q113 0 215 -67l-72 -410q25 -8 56 -8q109 0 156.5 104.5t47.5 258.5 q0 182 -89 288.5t-277 106.5q-217 0 -352.5 -177t-135.5 -458q0 -262 130.5 -404.5t369.5 -142.5q145 0 283 49l24 -108q-147 -55 -323 -56q-276 0 -444.5 180.5t-168.5 483.5zM553 569q-8 -51 51 -51q63 0 109 27l57 325q-41 23 -90 23q-70 0 -80 -55z" />
<glyph unicode="A" horiz-adv-x="909" d="M31 0l329 1364h189l330 -1364h-162l-74 338h-377l-73 -338h-162zM297 481h315l-157 727z" />
<glyph unicode="B" horiz-adv-x="911" d="M123 0v1364h399q141 0 201.5 -66.5t60.5 -199.5v-164q0 -168 -141 -225q102 -14 149.5 -74t47.5 -174v-166q0 -133 -81 -214t-237 -81h-399zM287 139h227q162 0 162 156v166q0 88 -35 126t-113 38h-241v-486zM287 764h188q145 0 146 149v187q0 66 -28 95.5t-89 29.5h-217 v-461z" />
<glyph unicode="C" horiz-adv-x="780" d="M100 356v652q0 193 90.5 287t282.5 94q119 0 238 -31l-19 -137q-104 25 -213 24q-123 0 -169 -54t-46 -185v-648q0 -131 46 -185t169 -54q109 0 213 24l19 -137q-119 -31 -238 -31q-193 0 -283 94t-90 287z" />
<glyph unicode="D" horiz-adv-x="940" d="M123 0v1364h344q371 0 371 -397v-570q0 -397 -371 -397h-344zM287 143h172q119 0 167 59.5t48 192.5v574q0 133 -48 192.5t-167 59.5h-172v-1078z" />
<glyph unicode="E" horiz-adv-x="811" d="M123 0v1364h616v-143h-452v-457h415v-143h-415v-478h452v-143h-616z" />
<glyph unicode="F" horiz-adv-x="790" d="M123 0v1364h620v-143h-456v-490h420v-143h-420v-588h-164z" />
<glyph unicode="G" horiz-adv-x="917" d="M102 358v648q0 383 387 383q154 0 281 -37l-20 -144q-121 37 -252 37q-121 0 -176.5 -55t-55.5 -191v-632q0 -137 47 -192.5t179 -55.5q74 0 157 14v488h156v-594q-129 -51 -322 -52q-205 0 -293 95t-88 288z" />
<glyph unicode="H" horiz-adv-x="987" d="M123 0v1364h164v-592h413v592h164v-1364h-164v625h-413v-625h-164z" />
<glyph unicode="I" horiz-adv-x="421" d="M129 0v1364h164v-1364h-164z" />
<glyph unicode="J" horiz-adv-x="409" d="M-27 -324l46 61l40 51q12 15 27.5 40t22 41t10.5 37.5t4 48.5v1409h164v-1415q0 -94 -36 -158.5t-167 -214.5z" />
<glyph unicode="K" horiz-adv-x="880" d="M123 0v1364h164v-1364h-164zM313 694l338 670h180l-350 -670l375 -694h-180z" />
<glyph unicode="L" horiz-adv-x="743" d="M123 0v1364h164v-1221h413v-143h-577z" />
<glyph unicode="M" horiz-adv-x="1286" d="M123 0v1364h205l313 -1229l313 1229h209v-1364h-151v1065l-281 -1065h-180l-281 1065v-1065h-147z" />
<glyph unicode="N" horiz-adv-x="1019" d="M123 0v1364h168l452 -1036v1036h154v-1364h-168l-453 1036v-1036h-153z" />
<glyph unicode="O" horiz-adv-x="962" d="M102 365v634q0 174 92.5 282t287 108t286.5 -107.5t92 -282.5v-634q0 -174 -92 -282t-286.5 -108t-287 108t-92.5 282zM266 360q0 -131 53.5 -186t162 -55t161.5 55t53 186v644q0 131 -53 186t-161.5 55t-162 -55t-53.5 -186v-644z" />
<glyph unicode="P" horiz-adv-x="880" d="M123 0v1364h381q170 0 244.5 -79t74.5 -247v-159q0 -152 -85 -239t-249 -87h-202v-553h-164zM287 696h198q90 0 132 43t42 140v159q0 98 -38.5 140.5t-128.5 42.5h-205v-525z" />
<glyph unicode="Q" horiz-adv-x="962" d="M102 365v634q0 174 92.5 282t287 108t286.5 -107.5t92 -282.5v-634q0 -137 -57.5 -234.5t-173.5 -134.5l114 -203l-129 -76l-159 258q-180 8 -266.5 114t-86.5 276zM266 360q0 -131 53.5 -186t162 -55t161.5 55t53 186v644q0 131 -53 186t-161.5 55t-162 -55t-53.5 -186 v-644z" />
<glyph unicode="R" horiz-adv-x="960" d="M123 0v1364h401q170 0 245 -79t75 -247v-155q0 -240 -197 -305l262 -578h-180l-246 557h-196v-557h-164zM287 700h221q90 0 132 43t42 140v155q0 98 -39 140.5t-129 42.5h-227v-521z" />
<glyph unicode="S" horiz-adv-x="768" d="M66 1030q0 186 96 272.5t254 86.5q133 0 252 -37l-21 -144q-111 35 -223 35q-102 0 -148.5 -48t-46.5 -159q0 -117 28 -152.5t163 -97.5q193 -86 244 -157.5t51 -272.5q0 -186 -94.5 -283.5t-276.5 -97.5q-145 0 -258 45l23 146q117 -45 229 -45q213 0 213 221 q0 141 -33 188.5t-170 104.5q-182 76 -232 154.5t-50 240.5z" />
<glyph unicode="T" horiz-adv-x="765" d="M31 1221v143h704v-143h-270v-1221h-164v1221h-270z" />
<glyph unicode="U" horiz-adv-x="983" d="M119 352v1012h164v-1014q0 -121 49 -176t159.5 -55t159.5 55t49 176v1014h164v-1012q0 -180 -92 -278.5t-280.5 -98.5t-280.5 98.5t-92 278.5z" />
<glyph unicode="V" horiz-adv-x="815" d="M23 1364h159l226 -1178l225 1178h160l-287 -1364h-197z" />
<glyph unicode="W" horiz-adv-x="1376" d="M31 1364h162l184 -1122l213 1122h196l213 -1122l185 1122h162l-254 -1364h-183l-221 1221l-221 -1221h-182z" />
<glyph unicode="X" horiz-adv-x="864" d="M31 0l313 690l-301 674h166l223 -518l223 518h166l-301 -674l314 -690h-168l-234 532l-233 -532h-168z" />
<glyph unicode="Y" horiz-adv-x="782" d="M10 1364h172l209 -633l209 633h172l-299 -805v-559h-164v559z" />
<glyph unicode="Z" horiz-adv-x="827" d="M92 0v137l479 1084h-467v143h637v-137l-479 -1084h490v-143h-660z" />
<glyph unicode="[" horiz-adv-x="552" d="M154 -258v1876h338v-135h-179v-1606h179v-135h-338z" />
<glyph unicode="\" horiz-adv-x="768" d="M92 1384h154l430 -1624h-154z" />
<glyph unicode="]" horiz-adv-x="552" d="M61 -123h179v1606h-179v135h338v-1876h-338v135z" />
<glyph unicode="^" horiz-adv-x="827" d="M92 788l240 576h164l239 -576l-119 -51l-202 512l-203 -512z" />
<glyph unicode="_" horiz-adv-x="602" d="M-2 -205h606v-84h-606v84z" />
<glyph unicode="`" horiz-adv-x="733" d="M215 1282l78 115q80 -70 225 -176l-72 -105q-106 66 -231 166z" />
<glyph unicode="a" horiz-adv-x="792" d="M74 262q0 147 64.5 212t199.5 65h203v172q0 86 -33 119.5t-113 33.5q-111 0 -235 -47l-25 135q129 51 278.5 51.5t218 -67.5t68.5 -217v-719h-129l-16 74q-109 -94 -246 -94q-235 -1 -235 282zM229 266q0 -82 26 -117.5t97 -35.5q104 0 189 69v226h-183q-74 0 -101.5 -31 t-27.5 -111z" />
<glyph unicode="b" horiz-adv-x="833" d="M113 31v1374l159 25v-508q123 82 248 82q233 0 234 -269v-426q0 -330 -342 -329q-162 0 -299 51zM272 135q66 -16 144 -16q100 0 139 46t39 144v414q0 80 -25.5 110.5t-95.5 30.5q-88 0 -201 -73v-656z" />
<glyph unicode="c" horiz-adv-x="628" d="M84 283v417q0 303 299 304q104 0 197 -27l-19 -135q-72 20 -155 20q-94 0 -127 -41t-33 -137v-385q0 -96 32.5 -137t127.5 -41q84 0 155 20l19 -135q-92 -27 -197 -26q-299 0 -299 303z" />
<glyph unicode="d" horiz-adv-x="837" d="M84 248v438q0 317 291 318q100 0 190 -35v436l160 25v-1430h-131l-12 76q-123 -96 -265 -96q-233 0 -233 268zM244 260q0 -80 24.5 -110.5t85.5 -30.5q115 0 211 88v624q-82 33 -159 33q-84 0 -123 -42t-39 -136v-426z" />
<glyph unicode="e" horiz-adv-x="759" d="M84 311v367q0 164 86 245t229 81q295 0 295 -318v-252h-450v-125q0 -106 43 -150t149 -44q115 0 219 41l27 -131q-125 -45 -270 -45q-328 -1 -328 331zM244 567h299v127q0 90 -33 132t-111 42q-156 0 -155 -172v-129z" />
<glyph unicode="f" horiz-adv-x="516" d="M41 844v139h119v195q0 252 243 252q80 0 144 -23l-21 -131q-47 14 -104 14q-53 0 -78 -25.5t-25 -86.5v-195h197l-10 -139h-187v-844h-159v844h-119z" />
<glyph unicode="g" horiz-adv-x="778" d="M59 635v20q0 348 318 349q68 0 133 -21h258v-111l-113 -24q37 -80 37 -193v-20q0 -168 -80 -256t-235 -88h-27q-41 -72 -41 -105q0 -55 66 -63l119 -17q127 -18 181 -72t54 -177q0 -281 -348 -281q-127 0 -246 33l21 135q106 -31 221 -31q104 0 149 29t45 100 q0 66 -26.5 91.5t-102.5 35.5l-149 21q-141 18 -141 155q0 90 75 174q-168 78 -168 316zM215 633q0 -115 40 -162t122 -47t121 47t39 162v33q0 115 -39 159.5t-121 44.5t-122 -45t-40 -159v-33z" />
<glyph unicode="h" horiz-adv-x="845" d="M113 0v1405l159 25v-533q145 106 287 107q184 0 184 -199v-805h-159v776q0 49 -18.5 68.5t-61.5 19.5q-104 0 -232 -92v-772h-159z" />
<glyph unicode="i" d="M113 0v983h159v-983h-159zM113 1153v252h159v-252h-159z" />
<glyph unicode="j" d="M-33 -328l37 47q25 31 33 42l23 34l20.5 32t14.5 27.5t11.5 32t4.5 30.5t2 38v1028h159v-1034q0 -96 -34.5 -163t-163.5 -210zM113 1153v252h159v-252h-159z" />
<glyph unicode="k" horiz-adv-x="753" d="M113 0v1405l159 25v-1430h-159zM295 504l256 479h174l-262 -479l285 -504h-179z" />
<glyph unicode="l" d="M113 0v1405l159 25v-1430h-159z" />
<glyph unicode="m" horiz-adv-x="1296" d="M113 0v983h135l14 -88q133 109 287 109q131 0 172 -109q131 109 289 109q184 0 184 -199v-805h-160v776q0 49 -18.5 68.5t-61.5 19.5q-96 0 -221 -92v-772h-160v776q0 49 -18 68.5t-61 19.5q-92 0 -222 -92v-772h-159z" />
<glyph unicode="n" horiz-adv-x="845" d="M113 0v983h135l14 -88q141 109 297 109q184 0 184 -199v-805h-159v776q0 49 -18.5 68.5t-61.5 19.5q-104 0 -232 -92v-772h-159z" />
<glyph unicode="o" horiz-adv-x="831" d="M82 307v369q0 158 84 243t250 85t250 -85t84 -243v-369q0 -158 -84 -242.5t-250 -84.5t-250 84.5t-84 242.5zM242 297q0 -96 43 -137t131 -41t131 41t43 137v389q0 96 -43 137t-131 41t-131 -41t-43 -137v-389z" />
<glyph unicode="p" horiz-adv-x="841" d="M113 -428v1411h131l12 -76q123 96 264 97q233 0 234 -269v-438q0 -317 -291 -317q-100 0 -191 34v-417zM272 152q82 -33 160 -33q84 0 123 42t39 136v426q0 80 -24.5 110.5t-86.5 30.5q-96 0 -211 -80v-632z" />
<glyph unicode="q" horiz-adv-x="837" d="M88 248v426q0 176 86 253t256 77q160 0 299 -58v-1349l-160 -25v489q-119 -82 -247 -81q-234 0 -234 268zM248 260q0 -82 24.5 -111.5t96.5 -29.5q98 0 200 74v655q-66 16 -143 16q-100 0 -139 -46t-39 -144v-414z" />
<glyph unicode="r" horiz-adv-x="495" d="M113 0v983h135l12 -113q98 92 223 125l13 -157q-123 -39 -224 -97v-741h-159z" />
<glyph unicode="s" horiz-adv-x="686" d="M82 733q0 270 303 271q109 0 207 -31l-17 -135q-86 27 -190 26q-78 0 -110.5 -28.5t-32.5 -100t22.5 -97.5t122.5 -63q158 -55 203 -110t45 -197q0 -135 -79 -211.5t-226 -76.5q-125 0 -236 43l25 139q98 -43 200 -43q86 0 121 31.5t35 107.5q0 82 -25.5 110.5 t-127.5 63.5q-150 51 -195 109.5t-45 191.5z" />
<glyph unicode="t" horiz-adv-x="555" d="M27 844v139h129v254l159 20v-274h207l-8 -139h-199v-651q0 -37 16.5 -55.5t59.5 -18.5q59 0 111 14l12 -129q-86 -25 -156 -24q-203 0 -202 210v654h-129z" />
<glyph unicode="u" horiz-adv-x="839" d="M102 178v805h160v-776q0 -49 18.5 -68.5t61.5 -19.5q100 0 225 92v772h160v-983h-135l-14 88q-139 -109 -291 -108q-185 -1 -185 198z" />
<glyph unicode="v" horiz-adv-x="704" d="M16 983h154l182 -844l183 844h153l-239 -983h-193z" />
<glyph unicode="w" horiz-adv-x="1101" d="M25 983h147l113 -795l174 795h184l174 -795l113 795h147l-166 -983h-176l-184 848l-184 -848h-177z" />
<glyph unicode="x" horiz-adv-x="716" d="M20 0l256 492l-251 491h163l170 -358l170 358h164l-252 -491l256 -492h-161l-177 354l-176 -354h-162z" />
<glyph unicode="y" horiz-adv-x="704" d="M16 983h154l182 -829l183 829h153l-239 -983l-97 -403h-139l92 403h-53z" />
<glyph unicode="z" horiz-adv-x="708" d="M84 0v135l389 713h-381v135h545v-135l-389 -713h399v-135h-563z" />
<glyph unicode="{" horiz-adv-x="581" d="M82 614v131h41q45 0 63.5 19.5t18.5 60.5v570q0 121 51 172t160 51h114v-135h-94q-39 0 -55 -18.5t-16 -65.5v-559q0 -141 -146 -160q145 -18 146 -160v-559q0 -47 16 -65.5t55 -18.5h94v-135h-114q-109 0 -160 51t-51 172v570q0 41 -18.5 60t-63.5 19h-41z" />
<glyph unicode="|" horiz-adv-x="532" d="M195 -258v1876h143v-1876h-143z" />
<glyph unicode="}" horiz-adv-x="581" d="M51 -123h94q39 0 55.5 18.5t16.5 65.5v559q0 141 145 160q-145 18 -145 160v559q0 47 -16.5 65.5t-55.5 18.5h-94v135h115q109 0 160 -51t51 -172v-570q0 -41 18.5 -60.5t63.5 -19.5h41v-131h-41q-45 0 -63.5 -19.5t-18.5 -59.5v-570q0 -121 -51.5 -172t-159.5 -51h-115 v135z" />
<glyph unicode="~" horiz-adv-x="905" d="M113 614q16 270 192 271q74 0 174 -74q10 -8 26 -19l22 -17l18 -12q10 -7 15 -10l12 -8q7 -4 12.5 -5t12.5 -2t13 -1q31 0 44.5 31t29.5 117l119 -35q-18 -133 -61.5 -198.5t-125.5 -65.5q-45 0 -76.5 15t-88.5 56q-12 8 -33 24l-31 22q-10 7 -24.5 15.5t-24.5 11.5 t-23 3q-43 0 -58 -33.5t-26 -117.5z" />
<glyph unicode="&#xa1;" horiz-adv-x="425" d="M133 254l35 344h90l35 -344v-655h-160v655zM133 774v209h160v-209h-160z" />
<glyph unicode="&#xa2;" horiz-adv-x="739" d="M113 479v406q0 260 225 297v182h156v-180q82 -6 143 -23l-19 -135q-72 20 -184 21q-94 0 -127 -41t-33 -138v-372q0 -96 33 -137.5t127 -41.5q113 0 184 21l19 -135q-57 -18 -143 -25v-178h-156v182q-225 35 -225 297z" />
<glyph unicode="&#xa3;" horiz-adv-x="866" d="M92 0v131q90 150 122 237t46 224h-154v141h160v307q0 348 314 349q109 0 200 -31l-18 -131q-78 23 -158 22q-94 0 -135 -44t-41 -165v-307h303l-8 -141h-301q-16 -139 -50 -233.5t-116 -217.5h506v-141h-670z" />
<glyph unicode="&#xa4;" horiz-adv-x="987" d="M102 227l121 123q-31 55 -39 94t-8 113v252q0 76 8.5 114t38.5 93l-121 123l97 98l131 -131q63 35 163.5 35t163.5 -35l131 131l97 -98l-121 -123q31 -55 39 -93t8 -114v-252q0 -74 -8 -112.5t-39 -94.5l121 -123l-97 -98l-131 131q-63 -35 -163.5 -35t-163.5 35 l-131 -131zM330 535q0 -92 36.5 -133.5t127 -41.5t127 41t36.5 134v296q0 92 -36.5 133.5t-127 41.5t-127 -41t-36.5 -134v-296z" />
<glyph unicode="&#xa5;" horiz-adv-x="823" d="M72 1364h164l176 -633l176 633h164l-179 -551h154v-131h-197l-38 -123v-61h235v-125h-235v-373h-160v373h-236v125h236v61l-41 123h-195v131h154z" />
<glyph unicode="&#xa6;" horiz-adv-x="532" d="M195 -258v766h143v-766h-143zM195 852v766h143v-766h-143z" />
<glyph unicode="&#xa7;" horiz-adv-x="983" d="M123 1122q0 266 264 267q117 0 225 -43l-28 -123q-98 35 -183 34q-70 0 -97.5 -29.5t-27.5 -101.5q0 -231 49.5 -479t166.5 -600l-130 -47q-239 667 -239 1122zM401 -340l29 123q98 -35 182 -35q70 0 97.5 29.5t27.5 101.5q0 231 -49 479t-166 600l129 48 q240 -668 240 -1123q0 -266 -264 -266q-117 0 -226 43z" />
<glyph unicode="&#xa8;" horiz-adv-x="833" d="M215 1163v180h143v-180h-143zM475 1163v180h143v-180h-143z" />
<glyph unicode="&#xa9;" horiz-adv-x="1609" d="M102 682q0 309 188.5 505.5t514 196.5t514 -196.5t188.5 -505.5t-188.5 -505.5t-514 -196.5t-514 196.5t-188.5 505.5zM195 682q0 -274 161.5 -446.5t448.5 -172.5t448.5 172.5t161.5 446.5t-161.5 446t-448.5 172t-448.5 -172t-161.5 -446zM567 567v238q0 238 246 237 q94 0 188 -26l-18 -115q-76 20 -149 21q-72 0 -100.5 -28t-28.5 -93v-228q0 -66 27.5 -93t96.5 -27q76 0 154 20l18 -117q-92 -27 -188 -26q-246 -1 -246 237z" />
<glyph unicode="&#xaa;" horiz-adv-x="692" d="M133 922q0 170 176 170h131v92q0 53 -21.5 74.5t-70.5 21.5q-68 0 -151 -27l-19 103q88 33 187 33q100 0 147 -46.5t47 -150.5v-442h-100l-10 49q-78 -61 -166 -62q-150 1 -150 185zM250 918q0 -45 15.5 -63.5t56.5 -18.5q68 0 118 43v120h-106q-47 0 -65.5 -16 t-18.5 -65z" />
<glyph unicode="&#xab;" horiz-adv-x="980" d="M123 541l229 417l127 -69l-190 -348l190 -348l-127 -70zM481 541l230 417l127 -69l-191 -348l191 -348l-127 -70z" />
<glyph unicode="&#xac;" horiz-adv-x="983" d="M113 817v131h737v-491h-148v360h-589z" />
<glyph unicode="&#xad;" horiz-adv-x="628" d="M113 594v139h403v-139h-403z" />
<glyph unicode="&#xae;" horiz-adv-x="946" d="M102 1055q0 162 98.5 266t272.5 104t272.5 -104t98.5 -266t-98.5 -266.5t-272.5 -104.5t-272.5 104.5t-98.5 266.5zM164 1055q0 -133 77.5 -224.5t231.5 -91.5t231.5 91.5t77.5 224.5t-77.5 224t-231.5 91t-231.5 -91t-77.5 -224zM354 893v340h160q47 0 68.5 -21.5 t21.5 -68.5v-45q0 -61 -49 -82l88 -123h-82l-76 113h-63v-113h-68zM422 1061h78q37 0 37 37v41q0 37 -39 37h-76v-115z" />
<glyph unicode="&#xaf;" horiz-adv-x="837" d="M215 1190v127h408v-127h-408z" />
<glyph unicode="&#xb0;" horiz-adv-x="684" d="M113 1159.5q0 100.5 62.5 165t166.5 64.5t166.5 -64.5t62.5 -165t-62.5 -165t-166.5 -64.5t-166.5 64.5t-62.5 165zM219 1159.5q0 -61.5 31 -99.5t92 -38t92 38t31 99.5t-31 99t-92 37.5t-92 -37.5t-31 -99z" />
<glyph unicode="&#xb1;" horiz-adv-x="1024" d="M143 0v127h738v-127h-738zM143 643v131h295v354h148v-354h295v-131h-295v-360h-148v360h-295z" />
<glyph unicode="&#xb2;" horiz-adv-x="757" d="M154 543v108l215 236q66 72 85 110.5t19 104.5v51q0 61 -24.5 85t-83.5 24q-72 0 -170 -29l-17 117q92 35 205 34q115 0 168 -52t53 -167v-53q0 -94 -23.5 -151.5t-91.5 -124.5l-176 -174h289v-119h-448z" />
<glyph unicode="&#xb3;" horiz-adv-x="727" d="M154 551l14 108q76 -20 158 -20q68 0 92 23.5t24 76.5v58q0 55 -22.5 76.5t-77.5 21.5h-133v119h129q92 0 92 88v67q0 59 -22.5 79t-84 20t-151.5 -23l-10 113q94 27 190 26q104 0 156.5 -45t52.5 -149v-74q0 -61 -21.5 -98t-82.5 -57q63 -10 89.5 -48.5t26.5 -111.5v-68 q0 -211 -237 -211q-96 0 -182 29z" />
<glyph unicode="&#xb4;" horiz-adv-x="733" d="M215 1221q145 106 225 176l78 -115q-125 -100 -231 -166z" />
<glyph unicode="&#xb5;" horiz-adv-x="839" d="M102 -428v1411h160v-776q0 -49 18.5 -68.5t61.5 -19.5q100 0 225 92v772h160v-983h-135l-14 88q-139 -109 -291 -108q-16 0 -25 2v-385z" />
<glyph unicode="&#xb6;" horiz-adv-x="923" d="M113 932q0 205 115.5 316.5t289.5 115.5v-864q-174 4 -289.5 115.5t-115.5 316.5zM461 -336l53 69l47 59q12 15 31.5 45t26 47.5t12.5 42t6 50.5v1387h154v-1376q0 -100 -40 -171t-190 -241z" />
<glyph unicode="&#xb7;" d="M113 553v209h159v-209h-159z" />
<glyph unicode="&#xb8;" horiz-adv-x="722" d="M215 -383l14 88q47 -16 95 -16q74 0 73 55q0 53 -55 53q-29 0 -49 -10l-47 27l24 209h99l-17 -140q84 0 120 -31.5t36 -99.5q0 -74 -44 -114.5t-128 -40.5q-60 0 -121 20z" />
<glyph unicode="&#xb9;" horiz-adv-x="602" d="M113 1206l211 158h104v-821h-131v653l-125 -86z" />
<glyph unicode="&#xba;" horiz-adv-x="671" d="M123 944v238q0 100 56.5 153.5t156.5 53.5t156.5 -53.5t56.5 -153.5v-238q0 -100 -56.5 -153.5t-156.5 -53.5t-156.5 53.5t-56.5 153.5zM242 946q0 -104 94 -104t94 104v234q0 104 -94 104t-94 -104v-234z" />
<glyph unicode="&#xbb;" horiz-adv-x="980" d="M143 193l191 348l-191 348l127 69l230 -417l-230 -418zM502 193l190 348l-190 348l127 69l229 -417l-229 -418z" />
<glyph unicode="&#xbc;" horiz-adv-x="1505" d="M133 1206l211 158h105v-821h-132v653l-124 -86zM412 -47l483 1462l109 -43l-484 -1462zM825 188v103l275 530h157v-524h95v-109h-95v-188h-120v188h-312zM954 297h183v379z" />
<glyph unicode="&#xbd;" horiz-adv-x="1529" d="M133 1206l211 158h105v-821h-132v653l-124 -86zM412 -47l483 1462l109 -43l-484 -1462zM915 0v109l215 235q66 72 85.5 111t19.5 104v51q0 61 -24.5 85t-84.5 24q-72 0 -170 -29l-16 117q92 35 205 35q115 0 168 -52.5t53 -166.5v-54q0 -94 -23.5 -151.5t-91.5 -124.5 l-176 -174h289v-119h-449z" />
<glyph unicode="&#xbe;" horiz-adv-x="1556" d="M154 551l14 108q76 -20 158 -20q68 0 92 23.5t24 76.5v58q0 55 -22.5 76.5t-77.5 21.5h-133v119h129q92 0 92 88v67q0 59 -22.5 79t-84 20t-151.5 -23l-10 113q94 27 190 26q104 0 156.5 -45t52.5 -149v-74q0 -61 -21.5 -98t-82.5 -57q63 -10 89.5 -48.5t26.5 -111.5v-68 q0 -211 -237 -211q-96 0 -182 29zM463 -47l483 1462l109 -43l-484 -1462zM877 188v103l274 530h158v-524h94v-109h-94v-188h-121v188h-311zM1006 297h182v379z" />
<glyph unicode="&#xbf;" horiz-adv-x="782" d="M113 -39q0 127 29.5 191.5t125.5 160.5l207 201l100 -108l-190 -197q-70 -74 -91.5 -119t-21.5 -137v-72q0 -86 38 -124t128 -38q94 0 207 37l25 -139q-115 -41 -258 -41q-152 0 -225.5 69.5t-73.5 225.5v90zM403 774v209h160v-209h-160z" />
<glyph unicode="&#xc0;" horiz-adv-x="909" d="M31 0l329 1364h189l330 -1364h-162l-74 338h-377l-73 -338h-162zM262 1616l78 117q80 -70 209 -164l-72 -105q-106 66 -215 152zM297 481h315l-157 727z" />
<glyph unicode="&#xc1;" horiz-adv-x="909" d="M31 0l329 1364h189l330 -1364h-162l-74 338h-377l-73 -338h-162zM297 481h315l-157 727zM346 1569q129 94 209 164l78 -117q-109 -86 -215 -152z" />
<glyph unicode="&#xc2;" horiz-adv-x="909" d="M31 0l329 1364h189l330 -1364h-162l-74 338h-377l-73 -338h-162zM242 1556l213 177l213 -177l-68 -92q-14 8 -145 107q-131 -98 -146 -107zM297 481h315l-157 727z" />
<glyph unicode="&#xc3;" horiz-adv-x="909" d="M31 0l329 1364h189l330 -1364h-162l-74 338h-377l-73 -338h-162zM217 1571q43 78 72.5 105.5t79 27.5t102.5 -37q57 -39 78 -39q6 0 12 2t9 4t8.5 8.5t8.5 9.5t11 15l12 19l86 -60q-45 -72 -72.5 -97.5t-72.5 -25.5q-39 0 -96 35q-63 39 -82 39q-6 0 -11.5 -1t-9.5 -2 t-9 -5t-7 -6t-7 -9.5t-8.5 -10.5t-9.5 -14t-10 -16zM297 481h315l-157 727z" />
<glyph unicode="&#xc4;" horiz-adv-x="909" d="M31 0l329 1364h189l330 -1364h-162l-74 338h-377l-73 -338h-162zM244 1507v181h143v-181h-143zM297 481h315l-157 727zM524 1507v181h144v-181h-144z" />
<glyph unicode="&#xc5;" horiz-adv-x="909" d="M31 0l319 1327q-37 37 -37 100q0 61 38 99.5t103.5 38.5t103.5 -38t38 -99.5t-39 -100.5l322 -1327h-162l-74 338h-377l-73 -338h-162zM297 481h315l-157 727zM399 1427.5q0 -63.5 55.5 -63.5t55.5 63.5t-55.5 63.5t-55.5 -63.5z" />
<glyph unicode="&#xc6;" horiz-adv-x="1228" d="M31 0l329 1364h797v-143h-573l110 -457h426v-143h-391l115 -478h313v-143h-440l-74 338h-377l-73 -338h-162zM297 481h315l-157 727z" />
<glyph unicode="&#xc7;" horiz-adv-x="778" d="M100 354v654q0 195 87 288t286 93q129 0 236 -29l-17 -137q-109 23 -213 22q-121 0 -169 -54t-48 -192v-637q0 -137 48 -190t169 -53q117 0 213 22l17 -139q-100 -20 -213 -25l-11 -86q154 0 154 -135q0 -72 -43 -115.5t-129 -43.5q-57 0 -121 22l14 86q47 -16 95 -16 q74 0 73.5 61.5t-71.5 61.5q-12 0 -19 -2l-61 12q6 39 20 158q-158 14 -227.5 106t-69.5 268z" />
<glyph unicode="&#xc8;" horiz-adv-x="811" d="M123 0v1364h616v-143h-452v-457h415v-143h-415v-478h452v-143h-616zM258 1616l78 117q80 -70 209 -164l-72 -105q-106 66 -215 152z" />
<glyph unicode="&#xc9;" horiz-adv-x="811" d="M123 0v1364h616v-143h-452v-457h415v-143h-415v-478h452v-143h-616zM295 1569q129 94 209 164l78 -117q-109 -86 -215 -152z" />
<glyph unicode="&#xca;" horiz-adv-x="811" d="M123 0v1364h616v-143h-452v-457h415v-143h-415v-478h452v-143h-616zM221 1556l213 177l213 -177l-67 -92q-14 8 -146 107q-131 -98 -145 -107z" />
<glyph unicode="&#xcb;" horiz-adv-x="811" d="M123 0v1364h616v-143h-452v-457h415v-143h-415v-478h452v-143h-616zM211 1507v181h143v-181h-143zM492 1507v181h143v-181h-143z" />
<glyph unicode="&#xcc;" horiz-adv-x="421" d="M33 1616l78 117q80 -70 208 -164l-71 -105q-106 66 -215 152zM129 0v1364h164v-1364h-164z" />
<glyph unicode="&#xcd;" horiz-adv-x="421" d="M88 1569q129 94 209 164l78 -117q-109 -86 -215 -152zM129 0v1364h164v-1364h-164z" />
<glyph unicode="&#xce;" horiz-adv-x="421" d="M-2 1556l213 177l213 -177l-68 -92q-14 8 -145 107q-131 -98 -145 -107zM129 0v1364h164v-1364h-164z" />
<glyph unicode="&#xcf;" horiz-adv-x="421" d="M0 1507v181h143v-181h-143zM129 0v1364h164v-1364h-164zM281 1507v181h143v-181h-143z" />
<glyph unicode="&#xd0;" horiz-adv-x="972" d="M72 614v138h84v612h344q371 0 370 -397v-570q0 -397 -370 -397h-344v614h-84zM319 143h173q119 0 167 59.5t48 192.5v574q0 133 -48.5 192.5t-166.5 59.5h-173v-469h185v-138h-185v-471z" />
<glyph unicode="&#xd1;" horiz-adv-x="1019" d="M123 0v1364h168l452 -1036v1036h154v-1364h-168l-453 1036v-1036h-153zM272 1571q43 78 73 105.5t79 27.5t102 -37q59 -39 78 -39q6 0 12.5 2t9.5 4t8 8.5t8 9.5t11 15l13 19l86 -60q-45 -72 -73 -97.5t-73 -25.5q-39 0 -96 35q-63 39 -82 39q-6 0 -11 -1t-9.5 -2 t-9.5 -5t-7 -6t-7 -9.5t-8 -10.5t-9.5 -14t-10.5 -16z" />
<glyph unicode="&#xd2;" horiz-adv-x="962" d="M102 365v634q0 174 92.5 282t287 108t286.5 -107.5t92 -282.5v-634q0 -174 -92 -282t-286.5 -108t-287 108t-92.5 282zM266 360q0 -131 53.5 -186t162 -55t161.5 55t53 186v644q0 131 -53 186t-161.5 55t-162 -55t-53.5 -186v-644zM311 1616l78 117q80 -70 209 -164 l-72 -105q-106 66 -215 152z" />
<glyph unicode="&#xd3;" horiz-adv-x="962" d="M102 365v634q0 174 92.5 282t287 108t286.5 -107.5t92 -282.5v-634q0 -174 -92 -282t-286.5 -108t-287 108t-92.5 282zM266 360q0 -131 53.5 -186t162 -55t161.5 55t53 186v644q0 131 -53 186t-161.5 55t-162 -55t-53.5 -186v-644zM332 1569q129 94 209 164l77 -117 q-109 -86 -215 -152z" />
<glyph unicode="&#xd4;" horiz-adv-x="962" d="M102 365v634q0 174 92.5 282t287 108t286.5 -107.5t92 -282.5v-634q0 -174 -92 -282t-286.5 -108t-287 108t-92.5 282zM266 360q0 -131 53.5 -186t162 -55t161.5 55t53 186v644q0 131 -53 186t-161.5 55t-162 -55t-53.5 -186v-644zM268 1556l213 177l213 -177l-67 -92 q-14 8 -146 107q-131 -98 -145 -107z" />
<glyph unicode="&#xd5;" horiz-adv-x="962" d="M102 365v634q0 174 92.5 282t287 108t286.5 -107.5t92 -282.5v-634q0 -174 -92 -282t-286.5 -108t-287 108t-92.5 282zM246 1571q43 78 72.5 105.5t78.5 27.5t103 -37q57 -39 78 -39q6 0 12 2t9 4t8 8.5t8 9.5t12 15l12 19l86 -60q-45 -72 -72.5 -97.5t-72.5 -25.5 q-39 0 -97 35q-63 39 -82 39q-6 0 -11 -1t-9 -2t-9 -5l-7.5 -6t-7.5 -9.5t-8 -10.5t-9 -14t-10 -16zM266 360q0 -131 53.5 -186t162 -55t161.5 55t53 186v644q0 131 -53 186t-161.5 55t-162 -55t-53.5 -186v-644z" />
<glyph unicode="&#xd6;" horiz-adv-x="962" d="M102 365v634q0 174 92.5 282t287 108t286.5 -107.5t92 -282.5v-634q0 -174 -92 -282t-286.5 -108t-287 108t-92.5 282zM266 360q0 -131 53.5 -186t162 -55t161.5 55t53 186v644q0 131 -53 186t-161.5 55t-162 -55t-53.5 -186v-644zM270 1507v181h144v-181h-144zM551 1507 v181h143v-181h-143z" />
<glyph unicode="&#xd7;" horiz-adv-x="980" d="M133 436l264 266l-264 265l92 92l264 -264l265 264l94 -92l-264 -265l264 -266l-94 -92l-265 264l-264 -264z" />
<glyph unicode="&#xd8;" horiz-adv-x="962" d="M102 -82l78 182q-78 94 -78 265v634q0 174 92.5 282t286.5 108q137 0 228 -58l67 156l84 -41l-78 -182q78 -102 78 -265v-634q0 -174 -92 -282t-287 -108q-139 0 -229 58l-66 -156zM266 360q0 -39 2 -55l379 881q-51 59 -166 59q-109 0 -162 -55t-53 -186v-644zM315 178 q47 -59 166 -59q109 0 162 55t53 186v644q0 37 -2 55z" />
<glyph unicode="&#xd9;" horiz-adv-x="983" d="M119 352v1012h164v-1014q0 -121 49 -176t159.5 -55t159.5 55t49 176v1014h164v-1012q0 -180 -92 -278.5t-280.5 -98.5t-280.5 98.5t-92 278.5zM326 1616l77 117q80 -70 209 -164l-71 -105q-106 66 -215 152z" />
<glyph unicode="&#xda;" horiz-adv-x="983" d="M119 352v1012h164v-1014q0 -121 49 -176t159.5 -55t159.5 55t49 176v1014h164v-1012q0 -180 -92 -278.5t-280.5 -98.5t-280.5 98.5t-92 278.5zM367 1569q129 94 208 164l78 -117q-109 -86 -215 -152z" />
<glyph unicode="&#xdb;" horiz-adv-x="983" d="M119 352v1012h164v-1014q0 -121 49 -176t159.5 -55t159.5 55t49 176v1014h164v-1012q0 -180 -92 -278.5t-280.5 -98.5t-280.5 98.5t-92 278.5zM279 1556l213 177l213 -177l-68 -92q-14 8 -145 107q-131 -98 -146 -107z" />
<glyph unicode="&#xdc;" horiz-adv-x="983" d="M119 352v1012h164v-1014q0 -121 49 -176t159.5 -55t159.5 55t49 176v1014h164v-1012q0 -180 -92 -278.5t-280.5 -98.5t-280.5 98.5t-92 278.5zM281 1507v181h143v-181h-143zM561 1507v181h144v-181h-144z" />
<glyph unicode="&#xdd;" horiz-adv-x="782" d="M10 1364h172l209 -633l209 633h172l-299 -805v-559h-164v559zM272 1569q129 94 209 164l78 -117q-109 -86 -215 -152z" />
<glyph unicode="&#xde;" horiz-adv-x="880" d="M123 0v1364h164v-268h217q170 0 244.5 -79t74.5 -247v-160q0 -152 -85 -238.5t-249 -86.5h-202v-285h-164zM287 428h198q90 0 132 43t42 139v160q0 98 -38.5 140t-128.5 42h-205v-524z" />
<glyph unicode="&#xdf;" horiz-adv-x="929" d="M113 0v1073q0 172 91 253t247 81q143 0 224 -77t81 -208q0 -123 -72 -268l-21 -43q-13 -27 -19 -38l-13 -29q-8 -17 -11.5 -26t-5.5 -21.5t-2 -24.5q0 -35 18.5 -57.5t100.5 -92.5q98 -84 126 -131t28 -141q0 -121 -63.5 -190.5t-188.5 -69.5q-100 0 -180 26l16 131 q74 -23 141 -22q117 0 117 113q0 18 -2 30.5t-3 22.5t-8 21l-12 18q-4 6 -18 19l-21.5 19.5t-31.5 25.5l-37 30q-86 72 -114.5 121t-28.5 117q0 16 1 30.5t6 31.5l8 28q3 10 12 31.5t14 29.5l17 36q13 28 19 38q66 135 66 229q0 154 -150 154q-172 0 -172 -195v-1075h-159z " />
<glyph unicode="&#xe0;" horiz-adv-x="792" d="M74 262q0 147 64.5 212t199.5 65h203v172q0 86 -33 119.5t-113 33.5q-111 0 -235 -47l-25 135q129 51 278.5 51.5t218 -67.5t68.5 -217v-719h-129l-16 74q-109 -94 -246 -94q-235 -1 -235 282zM229 266q0 -82 26 -117.5t97 -35.5q104 0 189 69v226h-183q-74 0 -101.5 -31 t-27.5 -111zM240 1282l77 115q80 -70 226 -176l-72 -105q-106 66 -231 166z" />
<glyph unicode="&#xe1;" horiz-adv-x="792" d="M74 262q0 147 64.5 212t199.5 65h203v172q0 86 -33 119.5t-113 33.5q-111 0 -235 -47l-25 135q129 51 278.5 51.5t218 -67.5t68.5 -217v-719h-129l-16 74q-109 -94 -246 -94q-235 -1 -235 282zM229 266q0 -82 26 -117.5t97 -35.5q104 0 189 69v226h-183q-74 0 -101.5 -31 t-27.5 -111zM252 1221q145 106 225 176l78 -115q-125 -100 -231 -166z" />
<glyph unicode="&#xe2;" horiz-adv-x="792" d="M74 262q0 147 64.5 212t199.5 65h203v172q0 86 -33 119.5t-113 33.5q-111 0 -235 -47l-25 135q129 51 278.5 51.5t218 -67.5t68.5 -217v-719h-129l-16 74q-109 -94 -246 -94q-235 -1 -235 282zM203 1204l207 193l206 -193l-71 -88l-43 36l-47 40l-45 39l-45 -39l-48 -40 l-43 -36zM229 266q0 -82 26 -117.5t97 -35.5q104 0 189 69v226h-183q-74 0 -101.5 -31t-27.5 -111z" />
<glyph unicode="&#xe3;" horiz-adv-x="792" d="M74 262q0 147 64.5 212t199.5 65h203v172q0 86 -33 119.5t-113 33.5q-111 0 -235 -47l-25 135q129 51 278.5 51.5t218 -67.5t68.5 -217v-719h-129l-16 74q-109 -94 -246 -94q-235 -1 -235 282zM180 1225q43 78 73 105.5t79 27.5t102 -37q57 -39 78 -39q6 0 12 2t9.5 4 t8.5 8.5t8 9.5t11 15l12 18l86 -59q-45 -72 -72.5 -97.5t-72.5 -25.5q-39 0 -96 35q-63 39 -82 39q-6 0 -11.5 -1t-9.5 -2t-9 -5t-7 -6.5t-7 -9.5t-8 -10t-9.5 -14.5t-10.5 -15.5zM229 266q0 -82 26 -117.5t97 -35.5q104 0 189 69v226h-183q-74 0 -101.5 -31t-27.5 -111z " />
<glyph unicode="&#xe4;" horiz-adv-x="792" d="M74 262q0 147 64.5 212t199.5 65h203v172q0 86 -33 119.5t-113 33.5q-111 0 -235 -47l-25 135q129 51 278.5 51.5t218 -67.5t68.5 -217v-719h-129l-16 74q-109 -94 -246 -94q-235 -1 -235 282zM207 1163v180h143v-180h-143zM229 266q0 -82 26 -117.5t97 -35.5 q104 0 189 69v226h-183q-74 0 -101.5 -31t-27.5 -111zM467 1163v180h143v-180h-143z" />
<glyph unicode="&#xe5;" horiz-adv-x="792" d="M74 262q0 147 64.5 212t199.5 65h203v172q0 86 -33 119.5t-113 33.5q-111 0 -235 -47l-25 135q129 51 278.5 51.5t218 -67.5t68.5 -217v-719h-129l-16 74q-109 -94 -246 -94q-235 -1 -235 282zM229 266q0 -82 26 -117.5t97 -35.5q104 0 189 69v226h-183q-74 0 -101.5 -31 t-27.5 -111zM266 1271.5q0 61.5 38 99.5t103.5 38t103.5 -38t38 -99.5t-38 -99t-103.5 -37.5t-103.5 37.5t-38 99zM352 1271.5q0 -63.5 55.5 -63.5t55.5 63.5t-55.5 63.5t-55.5 -63.5z" />
<glyph unicode="&#xe6;" horiz-adv-x="1216" d="M74 262q0 147 64.5 212t199.5 65h203v172q0 86 -33 119.5t-113 33.5q-111 0 -235 -47l-25 135q129 51 271 52q147 0 221 -91q82 90 221 91q303 0 303 -318v-252h-451v-125q0 -106 43 -150t150 -44q115 0 219 41l27 -131q-125 -45 -271 -45q-174 0 -254 92 q-127 -92 -295 -92q-123 0 -184 73.5t-61 208.5zM229 266q0 -82 23.5 -117.5t99.5 -35.5q113 0 207 61q-18 59 -18 137v97h-183q-74 0 -101.5 -31t-27.5 -111zM700 567h299v127q0 90 -32.5 132t-110.5 42q-156 0 -156 -172v-129z" />
<glyph unicode="&#xe7;" horiz-adv-x="628" d="M84 283v417q0 303 299 304q104 0 197 -27l-19 -135q-72 20 -155 20q-94 0 -127 -41t-33 -137v-385q0 -96 32.5 -137t127.5 -41q84 0 155 20l19 -135q-92 -27 -197 -26q-299 0 -299 303zM260 -383l14 88q47 -16 95 -16q74 0 73 55q0 53 -55 53q-29 0 -49 -10l-47 27 l24 209h99l-17 -140q84 0 120 -31.5t36 -99.5q0 -74 -44 -114.5t-128 -40.5q-60 0 -121 20z" />
<glyph unicode="&#xe8;" horiz-adv-x="759" d="M84 311v367q0 164 86 245t229 81q295 0 295 -318v-252h-450v-125q0 -106 43 -150t149 -44q115 0 219 41l27 -131q-125 -45 -270 -45q-328 -1 -328 331zM225 1282l78 115q80 -70 225 -176l-71 -105q-107 66 -232 166zM244 567h299v127q0 90 -33 132t-111 42 q-156 0 -155 -172v-129z" />
<glyph unicode="&#xe9;" horiz-adv-x="759" d="M84 311v367q0 164 86 245t229 81q295 0 295 -318v-252h-450v-125q0 -106 43 -150t149 -44q115 0 219 41l27 -131q-125 -45 -270 -45q-328 -1 -328 331zM238 1221q145 106 225 176l78 -115q-125 -100 -232 -166zM244 567h299v127q0 90 -33 132t-111 42q-156 0 -155 -172 v-129z" />
<glyph unicode="&#xea;" horiz-adv-x="759" d="M84 311v367q0 164 86 245t229 81q295 0 295 -318v-252h-450v-125q0 -106 43 -150t149 -44q115 0 219 41l27 -131q-125 -45 -270 -45q-328 -1 -328 331zM188 1204l207 193l207 -193l-72 -88l-43 36l-47 40l-45 39l-45 -39l-47 -40l-43 -36zM244 567h299v127q0 90 -33 132 t-111 42q-156 0 -155 -172v-129z" />
<glyph unicode="&#xeb;" horiz-adv-x="759" d="M84 311v367q0 164 86 245t229 81q295 0 295 -318v-252h-450v-125q0 -106 43 -150t149 -44q115 0 219 41l27 -131q-125 -45 -270 -45q-328 -1 -328 331zM197 1163v180h143v-180h-143zM244 567h299v127q0 90 -33 132t-111 42q-156 0 -155 -172v-129zM457 1163v180h143v-180 h-143z" />
<glyph unicode="&#xec;" d="M-2 1282l78 115q80 -70 225 -176l-72 -105q-106 66 -231 166zM113 0v983h159v-983h-159z" />
<glyph unicode="&#xed;" d="M86 1221q145 106 225 176l78 -115q-125 -100 -231 -166zM113 0v983h159v-983h-159z" />
<glyph unicode="&#xee;" d="M-14 1204l207 193l206 -193l-71 -88l-43 36l-47 40l-45 39l-46 -39l-47 -40l-43 -36zM113 0v983h159v-983h-159z" />
<glyph unicode="&#xef;" d="M-8 1163v180h143v-180h-143zM113 0v983h159v-983h-159zM252 1163v180h143v-180h-143z" />
<glyph unicode="&#xf0;" horiz-adv-x="864" d="M102 332v282q0 319 289 320q117 0 213 -53q-8 158 -108 264l-273 -144l-43 86l234 123q-98 70 -250 105l37 131q223 -45 358 -160l162 86l43 -86l-133 -69q133 -139 133 -416v-463q0 -168 -82 -265.5t-248 -97.5q-332 1 -332 357zM262 330q0 -113 37 -165t135 -52t134 52 t36 165v424q-82 41 -184 41q-80 0 -119 -38t-39 -134v-293z" />
<glyph unicode="&#xf1;" horiz-adv-x="845" d="M113 0v983h135l14 -88q141 109 297 109q184 0 184 -199v-805h-159v776q0 49 -18.5 68.5t-61.5 19.5q-104 0 -232 -92v-772h-159zM182 1225q43 78 73 105.5t79 27.5t102 -37q59 -39 78 -39q6 0 12 2t9.5 4t8.5 8.5t8 9.5t11 15l12 18l87 -59q-45 -72 -73 -97.5t-73 -25.5 q-39 0 -96 35q-63 39 -82 39q-6 0 -11 -1t-9.5 -2t-9.5 -5t-7 -6.5t-7 -9.5t-8 -10t-9.5 -14.5t-10.5 -15.5z" />
<glyph unicode="&#xf2;" horiz-adv-x="831" d="M82 307v369q0 158 84 243t250 85t250 -85t84 -243v-369q0 -158 -84 -242.5t-250 -84.5t-250 84.5t-84 242.5zM240 1282l77 115q80 -70 226 -176l-72 -105q-106 66 -231 166zM242 297q0 -96 43 -137t131 -41t131 41t43 137v389q0 96 -43 137t-131 41t-131 -41t-43 -137 v-389z" />
<glyph unicode="&#xf3;" horiz-adv-x="831" d="M82 307v369q0 158 84 243t250 85t250 -85t84 -243v-369q0 -158 -84 -242.5t-250 -84.5t-250 84.5t-84 242.5zM242 297q0 -96 43 -137t131 -41t131 41t43 137v389q0 96 -43 137t-131 41t-131 -41t-43 -137v-389zM260 1221q145 106 225 176l78 -115q-125 -100 -231 -166z " />
<glyph unicode="&#xf4;" horiz-adv-x="831" d="M82 307v369q0 158 84 243t250 85t250 -85t84 -243v-369q0 -158 -84 -242.5t-250 -84.5t-250 84.5t-84 242.5zM209 1204l207 193l207 -193l-72 -88l-43 36l-47 40l-45 39l-45 -39l-47 -40l-43 -36zM242 297q0 -96 43 -137t131 -41t131 41t43 137v389q0 96 -43 137t-131 41 t-131 -41t-43 -137v-389z" />
<glyph unicode="&#xf5;" horiz-adv-x="831" d="M82 307v369q0 158 84 243t250 85t250 -85t84 -243v-369q0 -158 -84 -242.5t-250 -84.5t-250 84.5t-84 242.5zM182 1225q43 78 73 105.5t79 27.5t102 -37q59 -39 78 -39q6 0 12 2t9.5 4t8.5 8.5t8 9.5t11 15l12 18l87 -59q-45 -72 -73 -97.5t-73 -25.5q-39 0 -96 35 q-63 39 -82 39q-6 0 -11 -1t-9.5 -2t-9.5 -5t-7 -6.5t-7 -9.5t-8 -10t-9.5 -14.5t-10.5 -15.5zM242 297q0 -96 43 -137t131 -41t131 41t43 137v389q0 96 -43 137t-131 41t-131 -41t-43 -137v-389z" />
<glyph unicode="&#xf6;" horiz-adv-x="831" d="M82 307v369q0 158 84 243t250 85t250 -85t84 -243v-369q0 -158 -84 -242.5t-250 -84.5t-250 84.5t-84 242.5zM215 1163v180h143v-180h-143zM242 297q0 -96 43 -137t131 -41t131 41t43 137v389q0 96 -43 137t-131 41t-131 -41t-43 -137v-389zM475 1163v180h143v-180h-143z " />
<glyph unicode="&#xf7;" horiz-adv-x="983" d="M123 637v131h737v-131h-737zM414 258v201h155v-201h-155zM414 946v201h155v-201h-155z" />
<glyph unicode="&#xf8;" horiz-adv-x="831" d="M82 -63l72 141q-72 80 -72 229v369q0 158 84 243t250 85q111 0 188 -41l70 137l76 -39l-78 -152q78 -84 78 -233v-369q0 -158 -84 -242.5t-250 -84.5q-115 0 -197 43l-63 -125zM242 297q0 -27 2 -41l293 575q-41 33 -121 33q-88 0 -131 -41t-43 -137v-389zM287 156 q39 -37 129 -37q88 0 131 41t43 137v389q0 20 -4 53z" />
<glyph unicode="&#xf9;" horiz-adv-x="839" d="M102 178v805h160v-776q0 -49 18.5 -68.5t61.5 -19.5q100 0 225 92v772h160v-983h-135l-14 88q-139 -109 -291 -108q-185 -1 -185 198zM236 1282l77 115q80 -70 226 -176l-72 -105q-106 66 -231 166z" />
<glyph unicode="&#xfa;" horiz-adv-x="839" d="M102 178v805h160v-776q0 -49 18.5 -68.5t61.5 -19.5q100 0 225 92v772h160v-983h-135l-14 88q-139 -109 -291 -108q-185 -1 -185 198zM289 1221q145 106 225 176l78 -115q-125 -100 -232 -166z" />
<glyph unicode="&#xfb;" horiz-adv-x="839" d="M102 178v805h160v-776q0 -49 18.5 -68.5t61.5 -19.5q100 0 225 92v772h160v-983h-135l-14 88q-139 -109 -291 -108q-185 -1 -185 198zM207 1204l207 193l207 -193l-72 -88l-43 36l-47 40l-45 39l-45 -39l-47 -40l-43 -36z" />
<glyph unicode="&#xfc;" horiz-adv-x="839" d="M102 178v805h160v-776q0 -49 18.5 -68.5t61.5 -19.5q100 0 225 92v772h160v-983h-135l-14 88q-139 -109 -291 -108q-185 -1 -185 198zM211 1163v180h143v-180h-143zM471 1163v180h143v-180h-143z" />
<glyph unicode="&#xfd;" horiz-adv-x="704" d="M16 983h154l182 -829l183 829h153l-239 -983l-97 -403h-139l92 403h-53zM244 1221q145 106 225 176l78 -115q-125 -100 -232 -166z" />
<glyph unicode="&#xfe;" horiz-adv-x="841" d="M113 -428v1833l159 25v-517q117 90 248 91q233 0 234 -269v-438q0 -317 -291 -317q-100 0 -191 34v-417zM272 152q82 -33 160 -33q84 0 123 42t39 136v426q0 80 -24.5 110.5t-86.5 30.5q-96 0 -211 -80v-632z" />
<glyph unicode="&#xff;" horiz-adv-x="704" d="M16 983h154l182 -829l183 829h153l-239 -983l-97 -403h-139l92 403h-53zM152 1163v180h143v-180h-143zM412 1163v180h143v-180h-143z" />
<glyph unicode="&#x152;" horiz-adv-x="1343" d="M102 389v586q0 174 92.5 281.5t286.5 107.5h791v-143h-453v-457h416v-143h-416v-478h453v-143h-791q-195 0 -287 107.5t-92 281.5zM266 385q0 -131 53.5 -186.5t161.5 -55.5h174v1078h-174q-109 0 -162 -55.5t-53 -186.5v-594z" />
<glyph unicode="&#x153;" horiz-adv-x="1263" d="M82 307v369q0 158 84 243t250 85q92 0 147 -27t105 -84q86 111 237 111q293 0 293 -318v-252h-448v-125q0 -106 43 -150t149 -44q115 0 219 41l27 -131q-125 -45 -270 -45q-172 0 -252 110q-96 -111 -260 -110q-324 -1 -324 327zM242 297q0 -96 43 -137t131 -41t131 41 t43 137v389q0 96 -43 137t-131 41t-131 -41t-43 -137v-389zM750 567h299v127q0 90 -33 132t-111 42q-156 0 -155 -172v-129z" />
<glyph unicode="&#x178;" horiz-adv-x="782" d="M10 1364h172l209 -633l209 633h172l-299 -805v-559h-164v559zM180 1507v181h144v-181h-144zM461 1507v181h143v-181h-143z" />
<glyph unicode="&#x2c6;" horiz-adv-x="843" d="M215 1204l207 193l207 -193l-72 -88l-43 36l-47 40l-45 39l-45 -39l-47 -40l-43 -36z" />
<glyph unicode="&#x2dc;" horiz-adv-x="909" d="M215 1225q43 78 72.5 105.5t79 27.5t102.5 -37q59 -39 78 -39q6 0 12 2t9 4t8.5 8.5t8.5 9.5t11 15l12 18l86 -59q-45 -72 -72.5 -97.5t-72.5 -25.5q-39 0 -96 35q-63 39 -82 39q-6 0 -11.5 -1t-9.5 -2t-9 -5t-7 -6.5t-7 -9.5t-8.5 -10t-9.5 -14.5t-10 -15.5z" />
<glyph unicode="&#x2013;" horiz-adv-x="944" d="M113 594v139h718v-139h-718z" />
<glyph unicode="&#x2014;" horiz-adv-x="1290" d="M113 594v139h1065v-139h-1065z" />
<glyph unicode="&#x2018;" d="M113 903v230l110 251l74 -32l-78 -219h53v-230h-159z" />
<glyph unicode="&#x2019;" horiz-adv-x="323" d="M72 915l78 220h-54v229h160v-229l-111 -252z" />
<glyph unicode="&#x201a;" d="M88 -219l78 219h-53v229h159v-229l-110 -252z" />
<glyph unicode="&#x201c;" horiz-adv-x="686" d="M113 903v230l110 251l74 -32l-78 -219h53v-230h-159zM414 903v230l110 251l74 -32l-78 -219h53v-230h-159z" />
<glyph unicode="&#x201d;" horiz-adv-x="624" d="M72 915l78 220h-54v229h160v-229l-111 -252zM373 915l78 220h-54v229h160v-229l-111 -252z" />
<glyph unicode="&#x201e;" horiz-adv-x="686" d="M88 -219l78 219h-53v229h159v-229l-110 -252zM389 -219l78 219h-53v229h159v-229l-110 -252z" />
<glyph unicode="&#x2022;" horiz-adv-x="765" d="M133 661.5q0 110.5 68.5 181t181.5 70.5t181.5 -70.5t68.5 -181t-68.5 -181t-181.5 -70.5t-181.5 70.5t-68.5 181z" />
<glyph unicode="&#x2026;" horiz-adv-x="1155" d="M113 0v209h159v-209h-159zM498 0v209h159v-209h-159zM883 0v209h159v-209h-159z" />
<glyph unicode="&#x2039;" horiz-adv-x="622" d="M123 541l229 417l127 -69l-190 -348l190 -348l-127 -70z" />
<glyph unicode="&#x203a;" horiz-adv-x="622" d="M143 193l191 348l-191 348l127 69l230 -417l-230 -418z" />
<glyph unicode="&#x20ac;" horiz-adv-x="894" d="M92 455v129h131v196h-131v129h131v119q0 170 79 265.5t271 95.5q123 0 226 -27l-19 -135q-82 23 -192 22q-121 0 -162 -52t-41 -173v-115h360v-129h-360v-196h360v-129h-360v-115q0 -121 41 -173t162 -52q111 0 192 22l19 -135q-102 -27 -226 -27q-193 0 -271.5 95.5 t-78.5 265.5v119h-131z" />
<glyph unicode="&#x2122;" horiz-adv-x="954" d="M82 1292v72h309v-72h-115v-334h-79v334h-115zM455 958l12 406h90l107 -293l106 293h90l12 -406h-75l-6 271l-82 -219h-91l-81 219l-7 -271h-75z" />
<glyph unicode="&#xe000;" horiz-adv-x="985" d="M0 985h985v-985h-985v985z" />
<glyph unicode="&#xfb01;" horiz-adv-x="874" d="M41 844v139h119v195q0 252 243 252q70 0 129 -21l-14 -131q-47 12 -96 12q-53 0 -78 -25.5t-25 -86.5v-195h185l-6 -139h-179v-844h-159v844h-119zM602 0v983h160v-983h-160zM602 1153v252h160v-252h-160z" />
<glyph unicode="&#xfb02;" horiz-adv-x="890" d="M41 844v139h119v195q0 252 243 252q70 0 129 -21l-14 -131q-47 12 -96 12q-53 0 -78 -25.5t-25 -86.5v-195h185l-6 -139h-179v-844h-159v844h-119zM618 0v1405l160 25v-1430h-160z" />
<glyph unicode="&#xfb03;" horiz-adv-x="1417" d="M1145 0v983h159v-983h-159zM1145 1153v252h159v-252h-159zM557 844v139h119v195q0 252 243 252q80 0 144 -23l-21 -131q-47 14 -104 14q-53 0 -78 -25.5t-25 -86.5v-195h197l-10 -139h-187v-844h-159v844h-119zM41 844v139h119v195q0 252 243 252q80 0 144 -23l-21 -131 q-47 14 -104 14q-53 0 -78 -25.5t-25 -86.5v-195h197l-10 -139h-187v-844h-159v844h-119z" />
<glyph unicode="&#xfb04;" horiz-adv-x="1417" d="M1145 0v1405l159 25v-1430h-159zM557 844v139h119v195q0 252 243 252q80 0 144 -23l-21 -131q-47 14 -104 14q-53 0 -78 -25.5t-25 -86.5v-195h197l-10 -139h-187v-844h-159v844h-119zM41 844v139h119v195q0 252 243 252q80 0 144 -23l-21 -131q-47 14 -104 14 q-53 0 -78 -25.5t-25 -86.5v-195h197l-10 -139h-187v-844h-159v844h-119z" />
</font>
</defs>
</svg>
